  0
SECTION
  2
HEADER
  9
$ACADVER
  1
AC1021
  9
$ACADMAINTVER
 70
    25
  9
$DWGCODEPAGE
  3
ANSI_1252
  9
$LASTSAVEDBY
  1
nishant.babu
  9
$INSBASE
 10
1073.567520506811
 20
-659.2728138780578
 30
0.0
  9
$EXTMIN
 10
1958.211056691896
 20
-727.7966893715797
 30
-0.0000000000112498
  9
$EXTMAX
 10
2135.090328804281
 20
-672.2709443369169
 30
0.0000000000002956
  9
$LIMMIN
 10
394.1176914873118
 20
-95.73181929408594
  9
$LIMMAX
 10
582.1176914873117
 20
74.8903588325616
  9
$ORTHOMODE
 70
     0
  9
$REGENMODE
 70
     1
  9
$FILLMODE
 70
     1
  9
$QTEXTMODE
 70
     0
  9
$MIRRTEXT
 70
     0
  9
$LTSCALE
 40
3.0
  9
$ATTMODE
 70
     1
  9
$TEXTSIZE
 40
3.5
  9
$TRACEWID
 40
0.5
  9
$TEXTSTYLE
  7
STANDARD
  9
$CLAYER
  8
0
  9
$CELTYPE
  6
ByLayer
  9
$CECOLOR
 62
   255
  9
$CELTSCALE
 40
1.0
  9
$DISPSILH
 70
     0
  9
$DIMSCALE
 40
0.75
  9
$DIMASZ
 40
2.5
  9
$DIMEXO
 40
0.5
  9
$DIMDLI
 40
7.0
  9
$DIMRND
 40
0.0
  9
$DIMDLE
 40
0.0
  9
$DIMEXE
 40
1.0
  9
$DIMTP
 40
0.0
  9
$DIMTM
 40
0.0
  9
$DIMTXT
 40
2.5
  9
$DIMCEN
 40
0.0
  9
$DIMTSZ
 40
0.0
  9
$DIMTOL
 70
     0
  9
$DIMLIM
 70
     0
  9
$DIMTIH
 70
     0
  9
$DIMTOH
 70
     0
  9
$DIMSE1
 70
     0
  9
$DIMSE2
 70
     0
  9
$DIMTAD
 70
     1
  9
$DIMZIN
 70
     9
  9
$DIMBLK
  1

  9
$DIMASO
 70
     1
  9
$DIMSHO
 70
     1
  9
$DIMPOST
  1

  9
$DIMAPOST
  1

  9
$DIMALT
 70
     0
  9
$DIMALTD
 70
     2
  9
$DIMALTF
 40
25.4
  9
$DIMLFAC
 40
1.0
  9
$DIMTOFL
 70
     0
  9
$DIMTVP
 40
0.0
  9
$DIMTIX
 70
     0
  9
$DIMSOXD
 70
     0
  9
$DIMSAH
 70
     0
  9
$DIMBLK1
  1

  9
$DIMBLK2
  1

  9
$DIMSTYLE
  2
DMST_1
  9
$DIMCLRD
 70
     2
  9
$DIMCLRE
 70
     2
  9
$DIMCLRT
 70
     3
  9
$DIMTFAC
 40
1.0
  9
$DIMGAP
 40
1.0
  9
$DIMJUST
 70
     0
  9
$DIMSD1
 70
     0
  9
$DIMSD2
 70
     0
  9
$DIMTOLJ
 70
     1
  9
$DIMTZIN
 70
     0
  9
$DIMALTZ
 70
     0
  9
$DIMALTTZ
 70
     0
  9
$DIMUPT
 70
     0
  9
$DIMDEC
 70
     2
  9
$DIMTDEC
 70
     2
  9
$DIMALTU
 70
     2
  9
$DIMALTTD
 70
     2
  9
$DIMTXSTY
  7
STANDARD
  9
$DIMAUNIT
 70
     0
  9
$DIMADEC
 70
     0
  9
$DIMALTRND
 40
0.0
  9
$DIMAZIN
 70
     0
  9
$DIMDSEP
 70
    46
  9
$DIMATFIT
 70
     0
  9
$DIMFRAC
 70
     0
  9
$DIMLDRBLK
  1

  9
$DIMLUNIT
 70
     2
  9
$DIMLWD
 70
    -2
  9
$DIMLWE
 70
    -2
  9
$DIMTMOVE
 70
     2
  9
$DIMFXL
 40
1.0
  9
$DIMFXLON
 70
     0
  9
$DIMJOGANG
 40
0.7853981633974483
  9
$DIMTFILL
 70
     0
  9
$DIMTFILLCLR
 70
     0
  9
$DIMARCSYM
 70
     0
  9
$DIMLTYPE
  6

  9
$DIMLTEX1
  6

  9
$DIMLTEX2
  6

  9
$LUNITS
 70
     2
  9
$LUPREC
 70
     4
  9
$SKETCHINC
 40
0.1
  9
$FILLETRAD
 40
2.0
  9
$AUNITS
 70
     0
  9
$AUPREC
 70
     0
  9
$MENU
  1
ACAD
  9
$ELEVATION
 40
0.0
  9
$PELEVATION
 40
0.0
  9
$THICKNESS
 40
0.0
  9
$LIMCHECK
 70
     0
  9
$CHAMFERA
 40
0.15
  9
$CHAMFERB
 40
0.15
  9
$CHAMFERC
 40
0.0
  9
$CHAMFERD
 40
0.0
  9
$SKPOLY
 70
     0
  9
$TDCREATE
 40
2456861.453798241
  9
$TDUCREATE
 40
2456861.224631574
  9
$TDUPDATE
 40
2456905.629141146
  9
$TDUUPDATE
 40
2456905.399974480
  9
$TDINDWG
 40
0.0689421991
  9
$TDUSRTIMER
 40
0.0689420139
  9
$USRTIMER
 70
     1
  9
$ANGBASE
 50
0.0
  9
$ANGDIR
 70
     0
  9
$PDMODE
 70
    97
  9
$PDSIZE
 40
0.0
  9
$PLINEWID
 40
0.0
  9
$SPLFRAME
 70
     0
  9
$SPLINETYPE
 70
     6
  9
$SPLINESEGS
 70
     8
  9
$HANDSEED
  5
405A
  9
$SURFTAB1
 70
     6
  9
$SURFTAB2
 70
     6
  9
$SURFTYPE
 70
     6
  9
$SURFU
 70
     6
  9
$SURFV
 70
     6
  9
$UCSBASE
  2

  9
$UCSNAME
  2

  9
$UCSORG
 10
0.0
 20
0.0
 30
0.0
  9
$UCSXDIR
 10
1.0
 20
0.0
 30
0.0
  9
$UCSYDIR
 10
0.0
 20
1.0
 30
0.0
  9
$UCSORTHOREF
  2

  9
$UCSORTHOVIEW
 70
     0
  9
$UCSORGTOP
 10
0.0
 20
0.0
 30
0.0
  9
$UCSORGBOTTOM
 10
0.0
 20
0.0
 30
0.0
  9
$UCSORGLEFT
 10
0.0
 20
0.0
 30
0.0
  9
$UCSORGRIGHT
 10
0.0
 20
0.0
 30
0.0
  9
$UCSORGFRONT
 10
0.0
 20
0.0
 30
0.0
  9
$UCSORGBACK
 10
0.0
 20
0.0
 30
0.0
  9
$PUCSBASE
  2

  9
$PUCSNAME
  2

  9
$PUCSORG
 10
0.0
 20
0.0
 30
0.0
  9
$PUCSXDIR
 10
1.0
 20
0.0
 30
0.0
  9
$PUCSYDIR
 10
0.0
 20
1.0
 30
0.0
  9
$PUCSORTHOREF
  2

  9
$PUCSORTHOVIEW
 70
     0
  9
$PUCSORGTOP
 10
0.0
 20
0.0
 30
0.0
  9
$PUCSORGBOTTOM
 10
0.0
 20
0.0
 30
0.0
  9
$PUCSORGLEFT
 10
0.0
 20
0.0
 30
0.0
  9
$PUCSORGRIGHT
 10
0.0
 20
0.0
 30
0.0
  9
$PUCSORGFRONT
 10
0.0
 20
0.0
 30
0.0
  9
$PUCSORGBACK
 10
0.0
 20
0.0
 30
0.0
  9
$USERI1
 70
     0
  9
$USERI2
 70
     0
  9
$USERI3
 70
     0
  9
$USERI4
 70
     0
  9
$USERI5
 70
     0
  9
$USERR1
 40
0.0
  9
$USERR2
 40
0.0
  9
$USERR3
 40
0.0
  9
$USERR4
 40
0.0
  9
$USERR5
 40
0.0
  9
$WORLDVIEW
 70
     1
  9
$SHADEDGE
 70
     3
  9
$SHADEDIF
 70
    70
  9
$TILEMODE
 70
     1
  9
$MAXACTVP
 70
    64
  9
$PINSBASE
 10
0.0
 20
0.0
 30
0.0
  9
$PLIMCHECK
 70
     0
  9
$PEXTMIN
 10
1.000000000000000E+20
 20
1.000000000000000E+20
 30
1.000000000000000E+20
  9
$PEXTMAX
 10
-1.000000000000000E+20
 20
-1.000000000000000E+20
 30
-1.000000000000000E+20
  9
$PLIMMIN
 10
0.0
 20
0.0
  9
$PLIMMAX
 10
12.0
 20
9.0
  9
$UNITMODE
 70
     0
  9
$VISRETAIN
 70
     1
  9
$PLINEGEN
 70
     0
  9
$PSLTSCALE
 70
     1
  9
$TREEDEPTH
 70
  3020
  9
$CMLSTYLE
  2
Standard
  9
$CMLJUST
 70
     0
  9
$CMLSCALE
 40
1.0
  9
$PROXYGRAPHICS
 70
     1
  9
$MEASUREMENT
 70
     0
  9
$CELWEIGHT
370
    -1
  9
$ENDCAPS
280
     0
  9
$JOINSTYLE
280
     0
  9
$LWDISPLAY
290
     0
  9
$INSUNITS
 70
     4
  9
$HYPERLINKBASE
  1

  9
$STYLESHEET
  1
SSG1.CTB
  9
$XEDIT
290
     1
  9
$CEPSNTYPE
380
     0
  9
$PSTYLEMODE
290
     1
  9
$FINGERPRINTGUID
  2
{878D558A-F6CF-43F8-B8AD-9BC23574DDCB}
  9
$VERSIONGUID
  2
{6283F2CC-436F-4F62-A8FA-988B029462E5}
  9
$EXTNAMES
290
     1
  9
$PSVPSCALE
 40
0.0
  9
$OLESTARTUP
290
     0
  9
$SORTENTS
280
   127
  9
$INDEXCTL
280
     0
  9
$HIDETEXT
280
     1
  9
$XCLIPFRAME
290
     0
  9
$HALOGAP
280
     0
  9
$OBSCOLOR
 70
   257
  9
$OBSLTYPE
280
     0
  9
$INTERSECTIONDISPLAY
280
     0
  9
$INTERSECTIONCOLOR
 70
   257
  9
$DIMASSOC
280
     1
  9
$PROJECTNAME
  1

  9
$CAMERADISPLAY
290
     0
  9
$LENSLENGTH
 40
50.0
  9
$CAMERAHEIGHT
 40
0.0
  9
$STEPSPERSEC
 40
2.0
  9
$STEPSIZE
 40
6.0
  9
$3DDWFPREC
 40
2.0
  9
$PSOLWIDTH
 40
0.25
  9
$PSOLHEIGHT
 40
4.0
  9
$LOFTANG1
 40
1.570796326794896
  9
$LOFTANG2
 40
1.570796326794896
  9
$LOFTMAG1
 40
0.0
  9
$LOFTMAG2
 40
0.0
  9
$LOFTPARAM
 70
     7
  9
$LOFTNORMALS
280
     1
  9
$LATITUDE
 40
37.795
  9
$LONGITUDE
 40
-122.394
  9
$NORTHDIRECTION
 40
0.0
  9
$TIMEZONE
 70
 -8000
  9
$LIGHTGLYPHDISPLAY
280
     1
  9
$TILEMODELIGHTSYNCH
280
     1
  9
$CMATERIAL
347
37
  9
$SOLIDHIST
280
     1
  9
$SHOWHIST
280
     1
  9
$DWFFRAME
280
     2
  9
$DGNFRAME
280
     0
  9
$REALWORLDSCALE
290
     1
  9
$INTERFERECOLOR
 62
     1
  9
$INTERFEREOBJVS
345
4D
  9
$INTERFEREVPVS
346
4E
  9
$CSHADOW
280
     0
  9
$SHADOWPLANELOCATION
 40
0.0
  0
ENDSEC
  0
SECTION
  2
CLASSES
  0
CLASS
  1
ACDBDICTIONARYWDFLT
  2
AcDbDictionaryWithDefault
  3
ObjectDBX Classes
 90
        0
 91
        1
280
     0
281
     0
  0
CLASS
  1
MATERIAL
  2
AcDbMaterial
  3
ObjectDBX Classes
 90
     1153
 91
        3
280
     0
281
     0
  0
CLASS
  1
VISUALSTYLE
  2
AcDbVisualStyle
  3
ObjectDBX Classes
 90
     4095
 91
       19
280
     0
281
     0
  0
CLASS
  1
SCALE
  2
AcDbScale
  3
ObjectDBX Classes
 90
     1153
 91
       33
280
     0
281
     0
  0
CLASS
  1
TABLESTYLE
  2
AcDbTableStyle
  3
ObjectDBX Classes
 90
     4095
 91
        1
280
     0
281
     0
  0
CLASS
  1
MLEADERSTYLE
  2
AcDbMLeaderStyle
  3
ACDB_MLEADERSTYLE_CLASS
 90
     4095
 91
        1
280
     0
281
     0
  0
CLASS
  1
CELLSTYLEMAP
  2
AcDbCellStyleMap
  3
ObjectDBX Classes
 90
     1152
 91
        5
280
     0
281
     0
  0
CLASS
  1
DICTIONARYVAR
  2
AcDbDictionaryVar
  3
ObjectDBX Classes
 90
        0
 91
       10
280
     0
281
     0
  0
CLASS
  1
ACAD_EVALUATION_GRAPH
  2
AcDbEvalGraph
  3
ObjectDBX Classes
 90
     1153
 91
        0
280
     0
281
     0
  0
CLASS
  1
ACAECUSTOBJ
  2
AcAeEditorObj
  3
AcAeEditorObj
 90
     1024
 91
        0
280
     0
281
     0
  0
CLASS
  1
ACDB_DYNAMICBLOCKPURGEPREVENTER_VERSION
  2
AcDbDynamicBlockPurgePreventer
  3
ObjectDBX Classes
 90
     1153
 91
        0
280
     0
281
     0
  0
CLASS
  1
SORTENTSTABLE
  2
AcDbSortentsTable
  3
ObjectDBX Classes
 90
        0
 91
       11
280
     0
281
     0
  0
CLASS
  1
ACDB_BLOCKREPRESENTATION_DATA
  2
AcDbBlockRepresentationData
  3
ObjectDBX Classes
 90
     1153
 91
        0
280
     0
281
     0
  0
CLASS
  1
SOLID_BACKGROUND
  2
AcDbSolidBackground
  3
SCENEOE
 90
     4095
 91
        0
280
     0
281
     0
  0
CLASS
  1
NPOCOLLECTION
  2
AcDbImpNonPersistentObjectsCollection
  3
ObjectDBX Classes
 90
     1153
 91
        0
280
     0
281
     0
  0
CLASS
  1
BREAKDATA
  2
AcDbBreakData
  3
ObjectDBX Classes
 90
     1024
 91
        1
280
     0
281
     0
  0
ENDSEC
  0
SECTION
  2
TABLES
  0
TABLE
  2
VPORT
  5
28
102
{ACAD_XDICTIONARY
360
2C
102
}
330
0
100
AcDbSymbolTable
 70
     1
  0
VPORT
  5
29
330
28
100
AcDbSymbolTableRecord
100
AcDbViewportTableRecord
  2
*Active
 70
     0
 10
0.0
 20
0.0
 11
1.0
 21
1.0
 12
2048.677073016625
 22
-706.3737799506407
 13
0.0
 23
0.0
 14
1.0
 24
1.0
 15
0.0
 25
0.0
 16
0.0
 26
0.0
 36
1.0
 17
0.0
 27
0.0
 37
0.0
 40
100.8290880140022
 41
2.151724137931034
 42
50.0
 43
0.0
 44
0.0
 50
0.0
 51
0.0
 71
     0
 72
 20000
 73
     1
 74
     1
 75
     0
 76
     0
 77
     0
 78
     0
281
     0
 65
     1
110
0.0
120
0.0
130
0.0
111
1.0
121
0.0
131
0.0
112
0.0
122
1.0
132
0.0
 79
     0
146
0.0
348
2A
 60
     3
 61
     5
292
     1
282
     1
141
0.0
142
0.0
 63
   250
421
  3355443
  0
ENDTAB
  0
TABLE
  2
LTYPE
  5
23
330
0
100
AcDbSymbolTable
 70
     2
  0
LTYPE
  5
24
330
23
100
AcDbSymbolTableRecord
100
AcDbLinetypeTableRecord
  2
ByBlock
 70
     0
  3

 72
    65
 73
     0
 40
0.0
  0
LTYPE
  5
25
330
23
100
AcDbSymbolTableRecord
100
AcDbLinetypeTableRecord
  2
ByLayer
 70
     0
  3

 72
    65
 73
     0
 40
0.0
  0
LTYPE
  5
15
330
23
100
AcDbSymbolTableRecord
100
AcDbLinetypeTableRecord
  2
CONTINUOUS
 70
     0
  3
Solid line
 72
    65
 73
     0
 40
0.0
  0
LTYPE
  5
7A
330
23
100
AcDbSymbolTableRecord
100
AcDbLinetypeTableRecord
  2
CENTER
 70
     0
  3
____ _ ____ _
 72
    65
 73
     4
 40
9.89473684210526
 49
6.184210526315785
 74
     0
 49
-1.236842105263157
 74
     0
 49
1.236842105263157
 74
     0
 49
-1.236842105263157
 74
     0
  0
ENDTAB
  0
TABLE
  2
LAYER
  5
1E
102
{ACAD_XDICTIONARY
360
13F8
102
}
330
0
100
AcDbSymbolTable
 70
     7
  0
LAYER
  5
6
102
{ACAD_XDICTIONARY
360
7
102
}
330
1E
100
AcDbSymbolTableRecord
100
AcDbLayerTableRecord
  2
0
 70
     0
 62
     7
  6
CONTINUOUS
370
    -3
390
9
347
C
  0
LAYER
  5
75
102
{ACAD_XDICTIONARY
360
76
102
}
330
1E
100
AcDbSymbolTableRecord
100
AcDbLayerTableRecord
  2
1
 70
     0
 62
     7
  6
CONTINUOUS
370
    -3
390
9
347
C
  0
LAYER
  5
3D1
330
1E
100
AcDbSymbolTableRecord
100
AcDbLayerTableRecord
  2
Defpoints
 70
     0
 62
     7
  6
CONTINUOUS
290
     0
370
    -3
390
9
347
C
  0
LAYER
  5
13F3
330
1E
100
AcDbSymbolTableRecord
100
AcDbLayerTableRecord
  2
Dark hatch1
 70
     0
 62
     3
  6
CONTINUOUS
370
    25
390
9
347
C
1001
AcAecLayerStandard
1000

1000

  0
LAYER
  5
2107
330
1E
100
AcDbSymbolTableRecord
100
AcDbLayerTableRecord
  2
DEFAULT_1
 70
     0
 62
     7
  6
CENTER
370
    -3
390
9
347
C
  0
LAYER
  5
2108
330
1E
100
AcDbSymbolTableRecord
100
AcDbLayerTableRecord
  2
02___PRT_ALL_AXES
 70
     0
 62
     7
  6
CONTINUOUS
370
    -3
390
9
347
C
  0
LAYER
  5
343D
330
1E
100
AcDbSymbolTableRecord
100
AcDbLayerTableRecord
  2
P
 70
     0
 62
   250
  6
CONTINUOUS
370
   100
390
9
347
C
  0
ENDTAB
  0
TABLE
  2
STYLE
  5
1F
330
0
100
AcDbSymbolTable
 70
     5
  0
STYLE
  5
20
330
1F
100
AcDbSymbolTableRecord
100
AcDbTextStyleTableRecord
  2
STANDARD
 70
     0
 40
0.0
 41
1.0
 50
0.0
 71
     0
 42
3.5
  3
isocpeur.ttf
  4

1001
ACAD
1000
ISOCPEUR
1071
       34
  0
STYLE
  5
C98
330
1F
100
AcDbSymbolTableRecord
100
AcDbTextStyleTableRecord
  2
SLDTEXTSTYLE0
 70
     0
 40
0.0
 41
0.605
 50
0.0
 71
     0
 42
0.0
  3
TXT
  4

  0
STYLE
  5
C99
330
1F
100
AcDbSymbolTableRecord
100
AcDbTextStyleTableRecord
  2
style1
 70
     0
 40
0.0
 41
1.0
 50
0.0
 71
     0
 42
0.2
  3
isocpeur.ttf
  4

1001
ACAD
1000
ISOCPEUR
1071
       34
  0
STYLE
  5
13F4
330
1F
100
AcDbSymbolTableRecord
100
AcDbTextStyleTableRecord
  2
NEW
 70
     0
 40
0.0
 41
1.0
 50
0.0
 71
     0
 42
0.2
  3
arial.ttf
  4

1001
ACAD
1000
Arial
1071
       34
  0
ENDTAB
  0
TABLE
  2
VIEW
  5
26
330
0
100
AcDbSymbolTable
 70
     0
  0
ENDTAB
  0
TABLE
  2
UCS
  5
27
330
0
100
AcDbSymbolTable
 70
     0
  0
ENDTAB
  0
TABLE
  2
APPID
  5
2D
330
0
100
AcDbSymbolTable
 70
    13
  0
APPID
  5
21
330
2D
100
AcDbSymbolTableRecord
100
AcDbRegAppTableRecord
  2
ACAD
 70
     0
  0
APPID
  5
D4
330
2D
100
AcDbSymbolTableRecord
100
AcDbRegAppTableRecord
  2
AcDbDynamicBlockTrueName
 70
     0
  0
APPID
  5
D5
330
2D
100
AcDbSymbolTableRecord
100
AcDbRegAppTableRecord
  2
AcDbDynamicBlockGUID
 70
     0
  0
APPID
  5
78
330
2D
100
AcDbSymbolTableRecord
100
AcDbRegAppTableRecord
  2
AcDbBlockRepETag
 70
     0
  0
APPID
  5
19
330
2D
100
AcDbSymbolTableRecord
100
AcDbRegAppTableRecord
  2
ACAD_PSEXT
 70
     0
  0
APPID
  5
30
330
2D
100
AcDbSymbolTableRecord
100
AcDbRegAppTableRecord
  2
ACAD_DSTYLE_DIMJAG
 70
     0
  0
APPID
  5
31
330
2D
100
AcDbSymbolTableRecord
100
AcDbRegAppTableRecord
  2
ACAD_DSTYLE_DIMTALN
 70
     0
  0
APPID
  5
103
330
2D
100
AcDbSymbolTableRecord
100
AcDbRegAppTableRecord
  2
ACAD_MLEADERVER
 70
     0
  0
APPID
  5
226
330
2D
100
AcDbSymbolTableRecord
100
AcDbRegAppTableRecord
  2
DCO15
 70
     0
  0
APPID
  5
D1E
330
2D
100
AcDbSymbolTableRecord
100
AcDbRegAppTableRecord
  2
ACAD_EXEMPT_FROM_CAD_STANDARDS
 70
     0
  0
APPID
  5
13F6
330
2D
100
AcDbSymbolTableRecord
100
AcDbRegAppTableRecord
  2
AcadAnnotative
 70
     0
  0
APPID
  5
13F7
330
2D
100
AcDbSymbolTableRecord
100
AcDbRegAppTableRecord
  2
AcAecLayerStandard
 70
     0
  0
APPID
  5
3B1E
330
2D
100
AcDbSymbolTableRecord
100
AcDbRegAppTableRecord
  2
ACAUTHENVIRON
 70
     0
  0
ENDTAB
  0
TABLE
  2
DIMSTYLE
  5
2E
330
0
100
AcDbSymbolTable
 70
    14
100
AcDbDimStyleTable
 71
     2
340
2F
340
32
  0
DIMSTYLE
105
32
330
2E
100
AcDbSymbolTableRecord
100
AcDbDimStyleTableRecord
  2
Standard
 70
     0
340
20
  0
DIMSTYLE
105
2F
102
{ACAD_REACTORS
330
35D6
330
35E3
330
363C
330
35F0
330
36DC
330
37F8
330
3854
330
388F
330
38A9
330
397B
330
3A05
330
3A14
330
3A23
102
}
330
2E
100
AcDbSymbolTableRecord
100
AcDbDimStyleTableRecord
  2
DMST_1
 70
     0
 41
2.5
 42
0.5
 43
7.0
 44
1.0
 73
     0
 74
     0
 77
     1
 78
     9
140
2.5
141
0.0
147
1.0
176
     2
177
     2
178
     3
271
     2
272
     2
279
     2
289
     0
340
20
1001
ACAD_DSTYLE_DIMJAG
1070
   388
1040
1.5
1001
ACAD_DSTYLE_DIMTALN
1070
   392
1070
     0
  0
DIMSTYLE
105
13F5
330
2E
100
AcDbSymbolTableRecord
100
AcDbDimStyleTableRecord
  2
DMST_2
 70
     0
 41
0.7000000000000002
 42
0.0
 43
7.0
 44
0.2
 71
     1
 73
     0
 74
     0
 77
     1
 78
     9
140
0.7000000000000002
141
0.0
146
0.7
176
     2
177
     2
178
     3
279
     2
340
20
  0
DIMSTYLE
105
2109
330
2E
100
AcDbSymbolTableRecord
100
AcDbDimStyleTableRecord
  2
DIMSTYLE_1
 70
     0
 41
4.0
 48
0.1
 71
     1
 73
     0
 74
     0
 77
     1
 78
     8
140
2.799999999999998
144
0.6666666667
146
0.75
178
     5
271
     2
272
     2
284
     8
340
20
341
2103
342
2103
343
2103
344
2103
  0
DIMSTYLE
105
210A
330
2E
100
AcDbSymbolTableRecord
100
AcDbDimStyleTableRecord
  2
DIMSTYLE_2
 70
     0
 41
4.0
 47
0.01
 48
0.01
 73
     0
 74
     0
 77
     1
 78
     8
140
2.799999999999998
144
0.6666666667
178
     5
271
     2
272
     2
284
     8
340
20
341
2103
342
2103
343
2103
344
2103
  0
DIMSTYLE
105
210B
330
2E
100
AcDbSymbolTableRecord
100
AcDbDimStyleTableRecord
  2
DIMSTYLE_3
 70
     0
 41
4.0
 47
0.2
 48
0.2
 71
     1
 73
     0
 74
     0
 77
     1
 78
     8
140
2.799999999999998
144
0.6666666667
178
     5
271
     2
272
     2
284
     8
340
20
341
2103
342
2103
343
2103
344
2103
  0
DIMSTYLE
105
210C
330
2E
100
AcDbSymbolTableRecord
100
AcDbDimStyleTableRecord
  2
DIMSTYLE_4
 70
     0
 41
4.0
 47
0.1
 48
0.1
 71
     1
 73
     0
 74
     0
 77
     1
 78
     8
140
2.799999999999998
144
0.6666666667
271
     1
272
     1
284
     8
340
20
341
2103
342
2103
343
2103
344
2103
  0
DIMSTYLE
105
210D
330
2E
100
AcDbSymbolTableRecord
100
AcDbDimStyleTableRecord
  2
DIMSTYLE_7
 70
     0
 41
4.0
 73
     0
 74
     0
 77
     1
 78
     8
140
2.799999999999998
144
0.6666666667
178
     5
271
     0
272
     0
284
     8
340
20
341
2103
342
2103
343
2103
344
2103
  0
DIMSTYLE
105
210E
102
{ACAD_REACTORS
330
2F45
102
}
330
2E
100
AcDbSymbolTableRecord
100
AcDbDimStyleTableRecord
  2
DIMSTYLE_8
 70
     0
 41
4.0
 47
0.3
 48
0.3
 71
     1
 73
     0
 74
     0
 77
     1
 78
     8
140
2.799999999999998
144
0.6666666667
178
     5
271
     2
272
     2
284
     8
340
20
341
2103
342
2103
343
2103
344
2103
  0
DIMSTYLE
105
210F
330
2E
100
AcDbSymbolTableRecord
100
AcDbDimStyleTableRecord
  2
DIMSTYLE_9
 70
     0
 41
4.0
 48
0.1
 71
     1
 77
     1
 78
     8
140
2.799999999999998
144
0.6666666667
146
0.75
178
     5
271
     2
272
     2
284
     8
340
20
341
2103
342
2103
343
2103
344
2103
  0
DIMSTYLE
105
2110
330
2E
100
AcDbSymbolTableRecord
100
AcDbDimStyleTableRecord
  2
DIMSTYLE_10
 70
     0
 41
4.0
 47
0.9
 48
0.9
 71
     1
 73
     0
 74
     0
 77
     1
 78
     8
140
2.799999999999998
144
0.6666666667
271
     2
272
     2
284
     8
340
20
341
2103
342
2103
343
2103
344
2103
  0
DIMSTYLE
105
2111
330
2E
100
AcDbSymbolTableRecord
100
AcDbDimStyleTableRecord
  2
DIMSTYLE_11
 70
     0
 41
4.0
 47
0.1
 48
0.1
 71
     1
 73
     0
 74
     0
 77
     1
 78
     8
140
2.799999999999998
144
0.6666666667
271
     2
272
     2
284
     8
340
20
341
2103
342
2103
343
2103
344
2103
  0
DIMSTYLE
105
2112
330
2E
100
AcDbSymbolTableRecord
100
AcDbDimStyleTableRecord
  2
DIMSTYLE_12
 70
     0
 41
4.0
 47
3.0
 48
3.0
 71
     1
 73
     0
 74
     0
 77
     1
 78
     8
140
2.799999999999998
144
0.6666666667
178
     5
271
     2
272
     2
284
     8
340
20
341
2103
342
2103
343
2103
344
2103
  0
ENDTAB
  0
TABLE
  2
BLOCK_RECORD
  5
1
330
0
100
AcDbSymbolTable
 70
    28
  0
BLOCK_RECORD
  5
2
102
{ACAD_XDICTIONARY
360
3
102
}
330
1
100
AcDbSymbolTableRecord
100
AcDbBlockTableRecord
  2
*Model_Space
340
17
 70
     0
280
     1
281
     0
  0
BLOCK_RECORD
  5
1A
330
1
100
AcDbSymbolTableRecord
100
AcDbBlockTableRecord
  2
*Paper_Space
340
1D
 70
     0
280
     1
281
     0
  0
BLOCK_RECORD
  5
C5D
102
{ACAD_XDICTIONARY
360
C5E
102
}
330
1
100
AcDbSymbolTableRecord
100
AcDbBlockTableRecord
  2
A$C08716F59
340
0
102
{BLKREFS
331
CD2
331
3A90
102
}
 70
     4
280
     1
281
     0
  0
BLOCK_RECORD
  5
C9A
102
{ACAD_XDICTIONARY
360
CD9
102
}
330
1
100
AcDbSymbolTableRecord
100
AcDbBlockTableRecord
  2
A$C058C21FF
340
0
 70
     4
280
     1
281
     0
  0
BLOCK_RECORD
  5
1356
330
1
100
AcDbSymbolTableRecord
100
AcDbBlockTableRecord
  2
_Dot
340
0
 70
     0
280
     1
281
     0
  0
BLOCK_RECORD
  5
13B4
102
{ACAD_XDICTIONARY
360
13B5
102
}
330
1
100
AcDbSymbolTableRecord
100
AcDbBlockTableRecord
  2
A$C53560A2D
340
0
102
{BLKREFS
331
13BF
102
}
 70
     1
280
     1
281
     0
  0
BLOCK_RECORD
  5
13BB
102
{ACAD_XDICTIONARY
360
13BC
102
}
330
1
100
AcDbSymbolTableRecord
100
AcDbBlockTableRecord
  2
A$C25042B23
340
0
 70
     1
280
     1
281
     0
  0
BLOCK_RECORD
  5
2103
330
1
100
AcDbSymbolTableRecord
100
AcDbBlockTableRecord
  2
_FILLED
340
0
102
{BLKREFS
331
2F3D
331
2F3E
102
}
 70
     0
280
     1
281
     0
  0
BLOCK_RECORD
  5
2F38
330
1
100
AcDbSymbolTableRecord
100
AcDbBlockTableRecord
  2
*D6
340
0
 70
     0
280
     1
281
     0
  0
BLOCK_RECORD
  5
2F44
102
{ACAD_XDICTIONARY
360
3026
102
}
330
1
100
AcDbSymbolTableRecord
100
AcDbBlockTableRecord
  2
A$C274A2516
340
0
 70
     4
280
     1
281
     0
  0
BLOCK_RECORD
  5
31A2
102
{ACAD_XDICTIONARY
360
31C5
102
}
330
1
100
AcDbSymbolTableRecord
100
AcDbBlockTableRecord
  2
A$C217E344C
340
0
 70
     4
280
     1
281
     0
  0
BLOCK_RECORD
  5
35D7
330
1
100
AcDbSymbolTableRecord
100
AcDbBlockTableRecord
  2
*D9
340
0
 70
     0
280
     1
281
     0
  0
BLOCK_RECORD
  5
35E4
330
1
100
AcDbSymbolTableRecord
100
AcDbBlockTableRecord
  2
*D10
340
0
 70
     0
280
     1
281
     0
  0
BLOCK_RECORD
  5
35F1
330
1
100
AcDbSymbolTableRecord
100
AcDbBlockTableRecord
  2
*D11
340
0
 70
     0
280
     1
281
     0
  0
BLOCK_RECORD
  5
363D
330
1
100
AcDbSymbolTableRecord
100
AcDbBlockTableRecord
  2
*D12
340
0
 70
     0
280
     1
281
     0
  0
BLOCK_RECORD
  5
36DD
330
1
100
AcDbSymbolTableRecord
100
AcDbBlockTableRecord
  2
*D13
340
0
 70
     0
280
     1
281
     0
  0
BLOCK_RECORD
  5
37F9
330
1
100
AcDbSymbolTableRecord
100
AcDbBlockTableRecord
  2
*D14
340
0
 70
     0
280
     1
281
     0
  0
BLOCK_RECORD
  5
383E
330
1
100
AcDbSymbolTableRecord
100
AcDbBlockTableRecord
  2
_Closed
340
0
 70
     0
280
     1
281
     0
  0
BLOCK_RECORD
  5
3855
330
1
100
AcDbSymbolTableRecord
100
AcDbBlockTableRecord
  2
*D16
340
0
 70
     0
280
     1
281
     0
  0
BLOCK_RECORD
  5
3885
102
{ACAD_XDICTIONARY
360
388A
102
}
330
1
100
AcDbSymbolTableRecord
100
AcDbBlockTableRecord
  2
A$C5BAF7941
340
0
 70
     4
280
     1
281
     0
  0
BLOCK_RECORD
  5
3890
330
1
100
AcDbSymbolTableRecord
100
AcDbBlockTableRecord
  2
*D18
340
0
 70
     0
280
     1
281
     0
  0
BLOCK_RECORD
  5
38AA
330
1
100
AcDbSymbolTableRecord
100
AcDbBlockTableRecord
  2
*D19
340
0
 70
     0
280
     1
281
     0
  0
BLOCK_RECORD
  5
397C
330
1
100
AcDbSymbolTableRecord
100
AcDbBlockTableRecord
  2
*D20
340
0
 70
     0
280
     1
281
     0
  0
BLOCK_RECORD
  5
3A06
330
1
100
AcDbSymbolTableRecord
100
AcDbBlockTableRecord
  2
*D21
340
0
 70
     0
280
     1
281
     0
  0
BLOCK_RECORD
  5
3A15
330
1
100
AcDbSymbolTableRecord
100
AcDbBlockTableRecord
  2
*D22
340
0
 70
     0
280
     1
281
     0
  0
BLOCK_RECORD
  5
3A24
330
1
100
AcDbSymbolTableRecord
100
AcDbBlockTableRecord
  2
*D23
340
0
 70
     0
280
     1
281
     0
  0
BLOCK_RECORD
  5
3A61
102
{ACAD_XDICTIONARY
360
3AA3
102
}
330
1
100
AcDbSymbolTableRecord
100
AcDbBlockTableRecord
  2
new A3-S11
340
0
 70
     4
280
     1
281
     0
  0
BLOCK_RECORD
  5
3B06
102
{ACAD_XDICTIONARY
360
3B2A
102
}
330
1
100
AcDbSymbolTableRecord
100
AcDbBlockTableRecord
  2
new block
340
0
102
{BLKREFS
331
3B12
102
}
 70
     4
280
     1
281
     0
1001
AcDbDynamicBlockGUID
1000
{F16379B2-8A45-46A1-B248-E39C0B7EF4EB}
1001
AcDbBlockRepETag
1070
     1
1071
        6
  0
BLOCK_RECORD
  5
3B11
102
{ACAD_XDICTIONARY
360
3B13
102
}
330
1
100
AcDbSymbolTableRecord
100
AcDbBlockTableRecord
  2
Datum
340
0
 70
     4
280
     1
281
     0
  0
ENDTAB
  0
ENDSEC
  0
SECTION
  2
BLOCKS
  0
BLOCK
  5
5
330
2
100
AcDbEntity
  8
0
100
AcDbBlockBegin
  2
*Model_Space
 70
     0
 10
0.0
 20
0.0
 30
0.0
  3
*Model_Space
  1

  0
ENDBLK
  5
16
330
2
100
AcDbEntity
  8
0
100
AcDbBlockEnd
  0
BLOCK
  5
1B
330
1A
100
AcDbEntity
 67
     1
  8
0
100
AcDbBlockBegin
  2
*Paper_Space
 70
     0
 10
0.0
 20
0.0
 30
0.0
  3
*Paper_Space
  1

  0
ENDBLK
  5
1C
330
1A
100
AcDbEntity
 67
     1
  8
0
100
AcDbBlockEnd
  0
BLOCK
  5
C60
330
C5D
100
AcDbEntity
  8
0
 62
   255
100
AcDbBlockBegin
  2
A$C08716F59
 70
     0
 10
0.0
 20
0.0
 30
0.0
  3
A$C08716F59
  1

  0
LINE
  5
C61
330
C5D
100
AcDbEntity
  8
0
  6
Continuous
 62
   255
100
AcDbLine
 10
0.0
 20
12.17339149400141
 30
0.0
 11
182.9999999999895
 21
12.17339149400141
 31
0.0
  0
LINE
  5
C62
330
C5D
100
AcDbEntity
  8
0
  6
Continuous
 62
   255
100
AcDbLine
 10
139.4722028839473
 20
8.115594329334285
 30
0.0
 11
182.9999999999895
 21
8.115594329334271
 31
0.0
  0
LINE
  5
C63
330
C5D
100
AcDbEntity
  8
0
  6
Continuous
 62
   255
100
AcDbLine
 10
139.4722028839473
 20
4.057797164667163
 30
0.0
 11
182.9999999999895
 21
4.05779716466715
 31
0.0
  0
MTEXT
  5
C64
330
C5D
100
AcDbEntity
  8
0
100
AcDbMText
 10
1.226077007665935
 20
16.62833710178165
 30
0.0
 40
2.494547437295385
 41
0.0
 46
0.0
 71
     1
 72
     5
  1
General tolerances ISO 2768-1 (fine)
 73
     1
 44
1.0
  0
MTEXT
  5
C65
330
C5D
100
AcDbEntity
  8
0
100
AcDbMText
 10
1.221253973245665
 20
22.7493147206207
 30
0.0
 40
2.494547437295385
 41
0.0
 46
0.0
 71
     1
 72
     5
  1
{\fISOCPEUR|b0|i0|c0|p34;\W1;Nominal dimension in mm}
  7
SLDTEXTSTYLE0
 73
     1
 44
1.0
1001
AcDbBlockRepETag
1070
     1
1071
        3
1005
0
  0
LINE
  5
C66
330
C5D
100
AcDbEntity
  8
0
  6
Continuous
 62
   255
100
AcDbLine
 10
58.34685140027523
 20
24.34678298800282
 30
0.0
 11
58.34685140027523
 21
0.0000000000000142
 31
0.0
1001
AcDbBlockRepETag
1070
     1
1071
        9
1005
0
  0
LINE
  5
C67
330
C5D
100
AcDbEntity
  8
0
  6
Continuous
 62
   255
100
AcDbLine
 10
0.0
 20
24.34678298800282
 30
0.0
 11
58.34685140027527
 21
24.34678298800282
 31
0.0
1001
AcDbBlockRepETag
1070
     1
1071
       10
1005
0
  0
LINE
  5
C68
330
C5D
100
AcDbEntity
  8
0
  6
Continuous
 62
   255
100
AcDbLine
 10
58.34685140027523
 20
24.34678298800282
 30
0.0
 11
182.9999999999895
 21
24.34678298800282
 31
0.0
1001
AcDbBlockRepETag
1070
     1
1071
       10
1005
0
  0
LINE
  5
C69
330
C5D
100
AcDbEntity
  8
0
  6
Continuous
 62
   255
100
AcDbLine
 10
79.12237616689424
 20
12.17339149400141
 30
0.0
 11
79.12237616689424
 21
24.34678298800282
 31
0.0
1001
AcDbBlockRepETag
1070
     1
1071
       14
1005
0
  0
LINE
  5
C6A
330
C5D
100
AcDbEntity
  8
0
  6
Continuous
 62
   255
100
AcDbLine
 10
99.89790093351338
 20
12.17339149400141
 30
0.0
 11
99.89790093351338
 21
24.34678298800282
 31
0.0
1001
AcDbBlockRepETag
1070
     1
1071
       14
1005
0
  0
MTEXT
  5
C6B
330
C5D
100
AcDbEntity
  8
0
100
AcDbMText
 10
168.9677353328222
 20
16.88893582326733
 30
0.0
 40
2.494547437295385
 41
0.0
 46
0.0
 71
     1
 72
     5
  1
%%p 0.3
 73
     1
 44
1.0
1001
AcDbBlockRepETag
1070
     1
1071
       24
1005
0
  0
MTEXT
  5
C6C
330
C5D
100
AcDbEntity
  8
0
100
AcDbMText
 10
147.9410418409381
 20
16.95985493722907
 30
0.0
 40
2.494547437295385
 41
0.0
 46
0.0
 71
     1
 72
     5
  1
%%p 0.2
 73
     1
 44
1.0
1001
AcDbBlockRepETag
1070
     1
1071
       25
1005
0
  0
MTEXT
  5
C6D
330
C5D
100
AcDbEntity
  8
0
100
AcDbMText
 10
126.4009074272721
 20
16.87519524493729
 30
0.0
 40
2.494547437295385
 41
0.0
 46
0.0
 71
     1
 72
     5
  1
%%p 0.15
 73
     1
 44
1.0
1001
AcDbBlockRepETag
1070
     1
1071
       26
1005
0
  0
MTEXT
  5
C6E
330
C5D
100
AcDbEntity
  8
0
100
AcDbMText
 10
105.9463212275484
 20
16.90112504597953
 30
0.0
 40
2.494547437295385
 41
0.0
 46
0.0
 71
     1
 72
     5
  1
%%p 0.1
 73
     1
 44
1.0
1001
AcDbBlockRepETag
1070
     1
1071
       27
1005
0
  0
MTEXT
  5
C6F
330
C5D
100
AcDbEntity
  8
0
100
AcDbMText
 10
84.98914242355727
 20
17.01437400608699
 30
0.0
 40
2.494547437295385
 41
0.0
 46
0.0
 71
     1
 72
     5
  1
%%p 0.05
 73
     1
 44
1.0
1001
AcDbBlockRepETag
1070
     1
1071
       28
1005
0
  0
TEXT
  5
C70
330
C5D
100
AcDbEntity
  8
0
  6
Continuous
100
AcDbText
 10
164.1615107706293
 20
20.37929673764472
 30
0.0
 40
2.494547437295385
  1
400 - 1000
100
AcDbText
1001
AcDbBlockRepETag
1070
     1
1071
       37
1005
0
  0
MTEXT
  5
C71
330
C5D
100
AcDbEntity
  8
0
100
AcDbMText
 10
144.158621869803
 20
22.96803362317041
 30
0.0
 40
2.494547437295385
 41
0.0
 46
0.0
 71
     1
 72
     5
  1
120 - 400
 73
     1
 44
1.0
1001
AcDbBlockRepETag
1070
     1
1071
       29
1005
0
  0
MTEXT
  5
C72
330
C5D
100
AcDbEntity
  8
0
100
AcDbMText
 10
124.3756636317091
 20
22.72513565785164
 30
0.0
 40
2.494547437295385
 41
0.0
 46
0.0
 71
     1
 72
     5
  1
30 - 120
 73
     1
 44
1.0
1001
AcDbBlockRepETag
1070
     1
1071
       30
1005
0
  0
MTEXT
  5
C73
330
C5D
100
AcDbEntity
  8
0
100
AcDbMText
 10
104.9462539288026
 20
22.75232551006025
 30
0.0
 40
2.494547437295385
 41
0.0
 46
0.0
 71
     1
 72
     5
  1
6 - 30
 73
     1
 44
1.0
1001
AcDbBlockRepETag
1070
     1
1071
       31
1005
0
  0
MTEXT
  5
C74
330
C5D
100
AcDbEntity
  8
0
100
AcDbMText
 10
85.07950812762826
 20
22.70556959691623
 30
0.0
 40
2.494547437295385
 41
0.0
 46
0.0
 71
     1
 72
     5
  1
3 - 6
 73
     1
 44
1.0
1001
AcDbBlockRepETag
1070
     1
1071
       32
1005
0
  0
MTEXT
  5
C75
330
C5D
100
AcDbEntity
  8
0
100
AcDbMText
 10
63.01858838858901
 20
22.78653418981571
 30
0.0
 40
2.494547437295385
 41
0.0
 46
0.0
 71
     1
 72
     5
  1
0.5 - 3
 73
     1
 44
1.0
1001
AcDbBlockRepETag
1070
     1
1071
       33
1005
0
  0
MTEXT
  5
C76
330
C5D
100
AcDbEntity
  8
0
100
AcDbMText
 10
63.43852565896918
 20
16.8478471152647
 30
0.0
 40
2.494547437295385
 41
0.0
 46
0.0
 71
     1
 72
     5
  1
%%p 0.05
 73
     1
 44
1.0
1001
AcDbBlockRepETag
1070
     1
1071
       34
1005
0
  0
LINE
  5
C77
330
C5D
100
AcDbEntity
  8
0
  6
Continuous
 62
   255
100
AcDbLine
 10
0.0
 20
18.2600872410037
 30
0.0
 11
182.9999999999897
 21
18.260087241002
 31
0.0
  0
LINE
  5
C78
330
C5D
100
AcDbEntity
  8
0
  6
Continuous
 62
   255
100
AcDbLine
 10
0.0
 20
0.0
 30
0.0
 11
182.9999999999895
 21
0.0
 31
0.0
  0
LINE
  5
C79
330
C5D
100
AcDbEntity
  8
0
  6
Continuous
 62
   255
100
AcDbLine
 10
0.0
 20
6.086695747002281
 30
0.0
 11
139.4722028839473
 21
6.086695747001003
 31
0.0
  0
MTEXT
  5
C7A
330
C5D
100
AcDbEntity
  8
0
100
AcDbMText
 10
1.201782440435636
 20
10.72252304166511
 30
0.0
 40
2.494547437295385
 41
0.0
 46
0.0
 71
     1
 72
     5
  1
{\fISOCPEUR|b0|i0|c0|p34;\W1;Shorter arm length of angle in mm}
  7
SLDTEXTSTYLE0
 73
     1
 44
1.0
1001
AcDbBlockRepETag
1070
     1
1071
        0
1005
0
  0
MTEXT
  5
C7B
330
C5D
100
AcDbEntity
  8
0
100
AcDbMText
 10
61.86525580137935
 20
10.6131426958143
 30
0.0
 40
2.494547437295385
 41
0.0
 46
0.0
 71
     1
 72
     5
  1
0 - 10
 73
     1
 44
1.0
1001
AcDbBlockRepETag
1070
     1
1071
       33
1005
0
  0
MTEXT
  5
C7C
330
C5D
100
AcDbEntity
  8
0
100
AcDbMText
 10
64.26181913627715
 20
4.674455621263291
 30
0.0
 40
2.494547437295385
 41
0.0
 46
0.0
 71
     1
 72
     5
  1
%%P 1%%D
 73
     1
 44
1.0
1001
AcDbBlockRepETag
1070
     1
1071
       34
1005
0
  0
MTEXT
  5
C7D
330
C5D
100
AcDbEntity
  8
0
100
AcDbMText
 10
77.03151478382712
 20
10.6131426958143
 30
0.0
 40
2.494547437295385
 41
0.0
 46
0.0
 71
     1
 72
     5
  1
10 - 50
 73
     1
 44
1.0
1001
AcDbBlockRepETag
1070
     1
1071
       33
1005
0
  0
MTEXT
  5
C7E
330
C5D
100
AcDbEntity
  8
0
100
AcDbMText
 10
78.88210132936956
 20
4.674455621263291
 30
0.0
 40
2.494547437295385
 41
0.0
 46
0.0
 71
     1
 72
     5
  1
%%P 0.5%%D
 73
     1
 44
1.0
1001
AcDbBlockRepETag
1070
     1
1071
       34
1005
0
  0
MTEXT
  5
C7F
330
C5D
100
AcDbEntity
  8
0
100
AcDbMText
 10
92.59088918373743
 20
10.6131426958143
 30
0.0
 40
2.494547437295385
 41
0.0
 46
0.0
 71
     1
 72
     5
  1
50 - 120
 73
     1
 44
1.0
1001
AcDbBlockRepETag
1070
     1
1071
       33
1005
0
  0
MTEXT
  5
C80
330
C5D
100
AcDbEntity
  8
0
100
AcDbMText
 10
93.18809940139328
 20
4.674455621263291
 30
0.0
 40
2.494547437295385
 41
0.0
 46
0.0
 71
     1
 72
     5
  1
%%P 0.333%%D
 73
     1
 44
1.0
1001
AcDbBlockRepETag
1070
     1
1071
       34
1005
0
  0
MTEXT
  5
C81
330
C5D
100
AcDbEntity
  8
0
100
AcDbMText
 10
107.5423679565415
 20
10.6131426958143
 30
0.0
 40
2.494547437295385
 41
0.0
 46
0.0
 71
     1
 72
     5
  1
120 - 400
 73
     1
 44
1.0
1001
AcDbBlockRepETag
1070
     1
1071
       33
1005
0
  0
MTEXT
  5
C82
330
C5D
100
AcDbEntity
  8
0
100
AcDbMText
 10
109.7564886466487
 20
4.674455621263291
 30
0.0
 40
2.494547437295385
 41
0.0
 46
0.0
 71
     1
 72
     5
  1
%%P 0.166%%D
 73
     1
 44
1.0
1001
AcDbBlockRepETag
1070
     1
1071
       34
1005
0
  0
MTEXT
  5
C83
330
C5D
100
AcDbEntity
  8
0
100
AcDbMText
 10
123.9025409958209
 20
10.6131426958143
 30
0.0
 40
2.494547437295385
 41
0.0
 46
0.0
 71
     1
 72
     5
  1
{\W0.9;400 - 1000}
 73
     1
 44
1.0
1001
AcDbBlockRepETag
1070
     1
1071
       33
1005
0
  0
MTEXT
  5
C84
330
C5D
100
AcDbEntity
  8
0
100
AcDbMText
 10
125.3174912143491
 20
4.674455621263291
 30
0.0
 40
2.494547437295385
 41
0.0
 46
0.0
 71
     1
 72
     5
  1
%%P 0.083%%D
 73
     1
 44
1.0
1001
AcDbBlockRepETag
1070
     1
1071
       34
1005
0
  0
MTEXT
  5
C85
330
C5D
100
AcDbEntity
  8
0
100
AcDbMText
 10
1.22607700766582
 20
4.82201452720912
 30
0.0
 40
2.494547437295385
 41
0.0
 46
0.0
 71
     1
 72
     5
  1
General tolerances ISO 2768-1 (fine)
 73
     1
 44
1.0
  0
LINE
  5
C86
330
C5D
100
AcDbEntity
  8
0
  6
Continuous
 62
   255
100
AcDbLine
 10
74.57192169700966
 20
12.17339149400141
 30
0.0
 11
74.57192169700966
 21
0.0000000000000142
 31
0.0
1001
AcDbBlockRepETag
1070
     1
1071
        9
1005
0
  0
LINE
  5
C87
330
C5D
100
AcDbEntity
  8
0
  6
Continuous
 62
   255
100
AcDbLine
 10
90.79699199374408
 20
12.17339149400141
 30
0.0
 11
90.79699199374408
 21
0.0000000000000142
 31
0.0
1001
AcDbBlockRepETag
1070
     1
1071
        9
1005
0
  0
LINE
  5
C88
330
C5D
100
AcDbEntity
  8
0
  6
Continuous
 62
   255
100
AcDbLine
 10
107.0220622904785
 20
12.17339149400141
 30
0.0
 11
107.0220622904785
 21
0.0000000000000142
 31
0.0
1001
AcDbBlockRepETag
1070
     1
1071
        9
1005
0
  0
LINE
  5
C89
330
C5D
100
AcDbEntity
  8
0
  6
Continuous
 62
   255
100
AcDbLine
 10
123.2471325872129
 20
12.17339149400141
 30
0.0
 11
123.2471325872129
 21
0.0000000000000142
 31
0.0
1001
AcDbBlockRepETag
1070
     1
1071
        9
1005
0
  0
LINE
  5
C8A
330
C5D
100
AcDbEntity
  8
0
  6
Continuous
 62
   255
100
AcDbLine
 10
139.4722028839473
 20
12.17339149400141
 30
0.0
 11
139.4722028839473
 21
0.0000000000000142
 31
0.0
1001
AcDbBlockRepETag
1070
     1
1071
        9
1005
0
  0
TOLERANCE
  5
C8B
330
C5D
100
AcDbEntity
  8
0
100
AcDbFcf
  3
Standard
 10
140.3018912761555
 20
10.16670485428646
 30
0.0
  1
%%v%%v%%vH1%%v%%v
1001
ACAD
1000
DSTYLE
1002
{
1070
    40
1040
0.5
1070
   140
1040
3.24
1070
   147
1040
1.62
1002
}
  0
MTEXT
  5
C8C
330
C5D
100
AcDbEntity
  8
0
100
AcDbMText
 10
144.6501712219154
 20
11.25538089487233
 30
0.0
 40
1.995637949836309
 41
0.0
 46
0.0
 71
     1
 72
     5
  1
.....
 73
     1
 44
1.0
1001
AcDbBlockRepETag
1070
     1
1071
       34
1005
0
  0
MTEXT
  5
C8D
330
C5D
100
AcDbEntity
  8
0
100
AcDbMText
 10
148.0466459170135
 20
11.25538089487233
 30
0.0
 40
1.995637949836309
 41
0.0
 46
0.0
 71
     1
 72
     5
  1
Horizontal CTQ Dimensions
 73
     1
 44
1.0
1001
AcDbBlockRepETag
1070
     1
1071
       34
1005
0
  0
TOLERANCE
  5
C8E
330
C5D
100
AcDbEntity
  8
0
100
AcDbFcf
  3
Standard
 10
140.3018912761555
 20
6.108907689619343
 30
0.0
  1
%%v%%v%%vV1%%v%%v
1001
ACAD
1000
DSTYLE
1002
{
1070
    40
1040
0.5
1070
   140
1040
3.24
1070
   147
1040
1.62
1002
}
  0
MTEXT
  5
C8F
330
C5D
100
AcDbEntity
  8
0
100
AcDbMText
 10
144.6501712219154
 20
7.197583730205209
 30
0.0
 40
1.995637949836309
 41
0.0
 46
0.0
 71
     1
 72
     5
  1
.....
 73
     1
 44
1.0
1001
AcDbBlockRepETag
1070
     1
1071
       34
1005
0
  0
MTEXT
  5
C90
330
C5D
100
AcDbEntity
  8
0
100
AcDbMText
 10
148.0466459170135
 20
7.197583730205209
 30
0.0
 40
1.995637949836309
 41
0.0
 46
0.0
 71
     1
 72
     5
  1
Vertical CTQ Dimensions
 73
     1
 44
1.0
1001
AcDbBlockRepETag
1070
     1
1071
       34
1005
0
  0
TOLERANCE
  5
C91
330
C5D
100
AcDbEntity
  8
0
100
AcDbFcf
  3
Standard
 10
140.3018912761555
 20
2.05111052495222
 30
0.0
  1
%%v%%v%%vS1%%v%%v
1001
ACAD
1000
DSTYLE
1002
{
1070
    40
1040
0.5
1070
   140
1040
3.24
1070
   147
1040
1.62
1002
}
  0
MTEXT
  5
C92
330
C5D
100
AcDbEntity
  8
0
100
AcDbMText
 10
144.6501712219154
 20
3.139786565538087
 30
0.0
 40
1.995637949836309
 41
0.0
 46
0.0
 71
     1
 72
     5
  1
.....
 73
     1
 44
1.0
1001
AcDbBlockRepETag
1070
     1
1071
       34
1005
0
  0
MTEXT
  5
C93
330
C5D
100
AcDbEntity
  8
0
100
AcDbMText
 10
148.0466459170135
 20
3.139786565538087
 30
0.0
 40
1.995637949836309
 41
0.0
 46
0.0
 71
     1
 72
     5
  1
GD&T & Other Features
 73
     1
 44
1.0
1001
AcDbBlockRepETag
1070
     1
1071
       34
1005
0
  0
LINE
  5
C94
330
C5D
100
AcDbEntity
  8
0
  6
Continuous
 62
   255
100
AcDbLine
 10
120.6734257001324
 20
12.17339149400141
 30
0.0
 11
120.6734257001324
 21
24.34678298800282
 31
0.0
1001
AcDbBlockRepETag
1070
     1
1071
       14
1005
0
  0
LINE
  5
C95
330
C5D
100
AcDbEntity
  8
0
  6
Continuous
 62
   255
100
AcDbLine
 10
141.4489504667515
 20
12.17339149400141
 30
0.0
 11
141.4489504667515
 21
24.34678298800282
 31
0.0
1001
AcDbBlockRepETag
1070
     1
1071
       14
1005
0
  0
LINE
  5
C96
330
C5D
100
AcDbEntity
  8
0
  6
Continuous
 62
   255
100
AcDbLine
 10
162.2244752333704
 20
12.17339149400141
 30
0.0
 11
162.2244752333704
 21
24.34678298800282
 31
0.0
1001
AcDbBlockRepETag
1070
     1
1071
       14
1005
0
  0
ENDBLK
  5
C97
330
C5D
100
AcDbEntity
  8
0
 62
   255
100
AcDbBlockEnd
  0
BLOCK
  5
CDB
330
C9A
100
AcDbEntity
  8
0
100
AcDbBlockBegin
  2
A$C058C21FF
 70
     0
 10
0.0
 20
0.0
 30
0.0
  3
A$C058C21FF
  1

  0
LINE
  5
C9B
330
C9A
100
AcDbEntity
  8
0
  6
Continuous
 62
   255
100
AcDbLine
 10
392.9999664095999
 20
-277.0
 30
0.0
 11
392.9999664095999
 21
0.0
 31
0.0
  0
LINE
  5
C9C
330
C9A
100
AcDbEntity
  8
0
  6
Continuous
 62
   255
100
AcDbLine
 10
10.0
 20
-277.0
 30
0.0
 11
392.9999664095999
 21
-277.0
 31
0.0
  0
LINE
  5
C9D
330
C9A
100
AcDbEntity
  8
0
  6
Continuous
 62
   255
100
AcDbLine
 10
0.0
 20
0.0
 30
0.0
 11
0.0
 21
-222.0000000000001
 31
0.0
  0
LINE
  5
C9E
330
C9A
100
AcDbEntity
  8
0
  6
Continuous
 62
   255
100
AcDbLine
 10
0.0
 20
0.0
 30
0.0
 11
392.9999664095999
 21
0.0
 31
0.0
  0
LINE
  5
C9F
330
C9A
100
AcDbEntity
  8
1
 62
     2
100
AcDbLine
 10
212.9999664095992
 20
-240.7736213082135
 30
0.0
 11
212.9999664095992
 21
-233.1532223398645
 31
0.0
1001
AcDbBlockRepETag
1070
     1
1071
     2034
1005
0
  0
LINE
  5
CA0
330
C9A
100
AcDbEntity
  8
1
 62
     2
100
AcDbLine
 10
377.9999664095851
 20
-240.7736213082135
 30
0.0
 11
212.9999664095992
 21
-240.7736213082135
 31
0.0
1001
AcDbBlockRepETag
1070
     1
1071
     2035
1005
0
  0
LINE
  5
CA1
330
C9A
100
AcDbEntity
  8
1
 62
     2
100
AcDbLine
 10
377.9999664095851
 20
-233.1532223398645
 30
0.0
 11
377.9999664095851
 21
-240.7736213082135
 31
0.0
1001
AcDbBlockRepETag
1070
     1
1071
     2036
1005
0
  0
LINE
  5
CA2
330
C9A
100
AcDbEntity
  8
1
 62
     2
100
AcDbLine
 10
212.9999664095992
 20
-233.1532223398645
 30
0.0
 11
377.9999664095851
 21
-233.1532223398645
 31
0.0
1001
AcDbBlockRepETag
1070
     1
1071
     2037
1005
0
  0
TEXT
  5
CA3
330
C9A
100
AcDbEntity
  8
1
 62
     3
100
AcDbText
 10
214.4930914539439
 20
-238.5485951401706
 30
0.0
 40
3.299999999999732
  1
Technology: Description - no. x.xxx.xx.xxxx
100
AcDbText
1001
AcDbBlockRepETag
1070
     1
1071
     2042
1005
0
  0
LINE
  5
CA4
330
C9A
100
AcDbEntity
  8
0
  6
Continuous
 62
   255
100
AcDbLine
 10
10.0
 20
-222.0
 30
0.0
 11
10.0
 21
-277.0
 31
0.0
1001
AcDbBlockRepETag
1070
     1
1071
     1946
1005
0
  0
LINE
  5
CA5
330
C9A
100
AcDbEntity
  8
0
  6
Continuous
 62
   255
100
AcDbLine
 10
10.0
 20
-222.0
 30
0.0
 11
0.0
 21
-222.0
 31
0.0
  0
TEXT
  5
CA6
330
C9A
100
AcDbEntity
  8
1
 62
     4
100
AcDbText
 10
2.500000000000001
 20
-237.5000000000001
 30
0.0
 40
5.0
  1
Drg. No.
 50
270.0
 72
     1
 11
5.0
 21
-249.5000000000001
 31
0.0
100
AcDbText
 73
     2
  0
LINE
  5
CA7
330
C9A
100
AcDbEntity
  8
0
  6
CENTER
 62
     2
 48
0.2
370
     9
100
AcDbLine
 10
386.4999681855563
 20
-259.423144560453
 30
0.0
 11
386.4999681855563
 21
-252.4231464730208
 31
0.0
1001
AcDbBlockRepETag
1070
     1
1071
        1
1005
0
  0
LINE
  5
CA8
330
C9A
100
AcDbEntity
  8
0
  6
Continuous
 62
   255
100
AcDbLine
 10
383.8712940050734
 20
-262.0000040983596
 30
0.0
 11
383.8712940050734
 21
-273.0000010928959
 31
0.0
1001
AcDbBlockRepETag
1070
     1
1071
        5
1005
0
  0
LINE
  5
CA9
330
C9A
100
AcDbEntity
  8
0
  6
CENTER
 62
     2
 48
0.2
370
     9
100
AcDbLine
 10
371.4999722839166
 20
-255.9231455167369
 30
0.0
 11
380.4999698249001
 21
-255.9231455167369
 31
0.0
1001
AcDbBlockRepETag
1070
     1
1071
        9
1005
0
  0
LINE
  5
CAA
330
C9A
100
AcDbEntity
  8
0
  6
Continuous
 62
   255
100
AcDbLine
 10
379.9999699615125
 20
-252.8231463637312
 30
0.0
 11
371.9999721473042
 21
-254.4231459265728
 31
0.0
1001
AcDbBlockRepETag
1070
     1
1071
       10
1005
0
  0
LINE
  5
CAB
330
C9A
100
AcDbEntity
  8
0
  6
Continuous
 62
   255
100
AcDbLine
 10
379.9999699615125
 20
-259.0231446697427
 30
0.0
 11
379.9999699615125
 21
-252.8231463637312
 31
0.0
1001
AcDbBlockRepETag
1070
     1
1071
       11
1005
0
  0
LINE
  5
CAC
330
C9A
100
AcDbEntity
  8
0
  6
Continuous
 62
   255
100
AcDbLine
 10
371.9999721473042
 20
-257.423145106901
 30
0.0
 11
379.9999699615125
 21
-259.0231446697427
 31
0.0
1001
AcDbBlockRepETag
1070
     1
1071
       12
1005
0
  0
LINE
  5
CAD
330
C9A
100
AcDbEntity
  8
0
  6
Continuous
 62
   255
100
AcDbLine
 10
371.9999721473042
 20
-254.4231459265728
 30
0.0
 11
371.9999721473042
 21
-257.423145106901
 31
0.0
1001
AcDbBlockRepETag
1070
     1
1071
       13
1005
0
  0
LINE
  5
CAE
330
C9A
100
AcDbEntity
  8
0
  6
Continuous
 62
   255
100
AcDbLine
 10
352.9999773385603
 20
-262.0000040983596
 30
0.0
 11
352.9999773385601
 21
-250.0008059763035
 31
0.0
1001
AcDbBlockRepETag
1070
     1
1071
       19
1005
0
  0
LINE
  5
CAF
330
C9A
100
AcDbEntity
  8
0
  6
Continuous
 62
   255
100
AcDbLine
 10
318.9999866281746
 20
-262.0000040983596
 30
0.0
 11
318.9999866281746
 21
-273.0000010928959
 31
0.0
1001
AcDbBlockRepETag
1070
     1
1071
       20
1005
0
  0
LINE
  5
CB0
330
C9A
100
AcDbEntity
  8
0
  6
Continuous
 62
   255
100
AcDbLine
 10
352.9999773385601
 20
-262.0000040983594
 30
0.0
 11
392.9999664096001
 21
-262.0000040983596
 31
0.0
1001
AcDbBlockRepETag
1070
     1
1071
       21
1005
0
  0
LINE
  5
CB1
330
C9A
100
AcDbEntity
  8
0
  6
Continuous
 62
   255
100
AcDbLine
 10
245.0000068467473
 20
-262.0000040983596
 30
0.0
 11
245.0000068467473
 21
-273.0000010928959
 31
0.0
1001
AcDbBlockRepETag
1070
     1
1071
       22
1005
0
  0
LINE
  5
CB2
330
C9A
100
AcDbEntity
  8
0
  6
Continuous
 62
   255
100
AcDbLine
 10
257.6666700525782
 20
-256.0008059763035
 30
0.0
 11
257.6666700525779
 21
-273.0000010928959
 31
0.0
1001
AcDbBlockRepETag
1070
     1
1071
       22
1005
0
  0
LINE
  5
CB3
330
C9A
100
AcDbEntity
  8
0
  6
Continuous
 62
   255
100
AcDbLine
 10
210.000016409587
 20
-233.1532223398645
 30
0.0
 11
210.000016409587
 21
-277.0
 31
0.0
1001
AcDbBlockRepETag
1070
     1
1071
       26
1005
0
  0
LINE
  5
CB4
330
C9A
100
AcDbEntity
  8
0
  6
Continuous
 62
   255
100
AcDbLine
 10
367.9999732401999
 20
-250.0008059763035
 30
0.0
 11
367.9999732401999
 21
-262.0000040983596
 31
0.0
1001
AcDbBlockRepETag
1070
     1
1071
       27
1005
0
  0
LINE
  5
CB5
330
C9A
100
AcDbEntity
  8
0
  6
Continuous
 62
   255
100
AcDbLine
 10
185.0000232401867
 20
-257.5000053278675
 30
0.0
 11
185.0000232401869
 21
-277.0
 31
0.0
1001
AcDbBlockRepETag
1070
     1
1071
       29
1005
0
  0
LINE
  5
CB6
330
C9A
100
AcDbEntity
  8
0
  6
Continuous
 62
     2
370
     9
100
AcDbLine
 10
27.00001640958703
 20
-266.5000028688518
 30
0.0
 11
210.000016409587
 21
-266.5000028688518
 31
0.0
1001
AcDbBlockRepETag
1070
     1
1071
       30
1005
0
  0
LINE
  5
CB7
330
C9A
100
AcDbEntity
  8
0
  6
Continuous
 62
   255
100
AcDbLine
 10
27.00001640958703
 20
-271.0000016393439
 30
0.0
 11
210.000016409587
 21
-271.0000016393439
 31
0.0
1001
AcDbBlockRepETag
1070
     1
1071
       31
1005
0
  0
LINE
  5
CB8
330
C9A
100
AcDbEntity
  8
0
  6
Continuous
 62
   255
100
AcDbLine
 10
27.00001640958703
 20
-277.0
 30
0.0
 11
27.00001640958681
 21
-233.1532223398645
 31
0.0
1001
AcDbBlockRepETag
1070
     1
1071
       32
1005
0
  0
LINE
  5
CB9
330
C9A
100
AcDbEntity
  8
0
  6
Continuous
 62
     2
370
     9
100
AcDbLine
 10
210.000016409587
 20
-262.0000040983596
 30
0.0
 11
27.00001640958703
 21
-262.0000040983596
 31
0.0
1001
AcDbBlockRepETag
1070
     1
1071
       33
1005
0
  0
LINE
  5
CBA
330
C9A
100
AcDbEntity
  8
0
  6
Continuous
 62
   255
100
AcDbLine
 10
160.0000300707861
 20
-257.5000053278675
 30
0.0
 11
160.0000300707863
 21
-277.0
 31
0.0
1001
AcDbBlockRepETag
1070
     1
1071
       34
1005
0
  0
LINE
  5
CBB
330
C9A
100
AcDbEntity
  8
0
  6
Continuous
 62
   255
100
AcDbLine
 10
135.0000369013846
 20
-257.5000053278675
 30
0.0
 11
135.0000369013846
 21
-277.0
 31
0.0
1001
AcDbBlockRepETag
1070
     1
1071
       35
1005
0
  0
LINE
  5
CBC
330
C9A
100
AcDbEntity
  8
0
  6
Continuous
 62
   255
100
AcDbLine
 10
33.90006452432795
 20
-257.5000053278675
 30
0.0
 11
33.90006452432795
 21
-277.0
 31
0.0
1001
AcDbBlockRepETag
1070
     1
1071
       36
1005
0
  0
LINE
  5
CBD
330
C9A
100
AcDbEntity
  8
0
  6
CENTER
 62
     2
 48
0.2
370
     9
100
AcDbLine
 10
382.8999691691633
 20
-255.9231455167369
 30
0.0
 11
389.9999672292731
 21
-255.9231455167369
 31
0.0
1001
AcDbBlockRepETag
1070
     1
1071
       37
1005
0
  0
LINE
  5
CBE
330
C9A
100
AcDbEntity
  8
0
  6
Continuous
 62
   255
100
AcDbLine
 10
392.9999664096001
 20
-273.0000010928959
 30
0.0
 11
210.000016409587
 21
-273.0000010928959
 31
0.0
1001
AcDbBlockRepETag
1070
     1
1071
       38
1005
0
  0
CIRCLE
  5
CBF
330
C9A
100
AcDbEntity
  8
0
  6
Continuous
 62
   255
100
AcDbCircle
 10
386.4999681855563
 20
-255.9231455167369
 30
0.0
 40
3.099999153005696
1001
AcDbBlockRepETag
1070
     1
1071
       39
1005
0
  0
CIRCLE
  5
CC0
330
C9A
100
AcDbEntity
  8
0
  6
Continuous
 62
   255
100
AcDbCircle
 10
386.4999681855563
 20
-255.9231455167369
 30
0.0
 40
1.499999590164045
1001
AcDbBlockRepETag
1070
     1
1071
       40
1005
0
  0
MTEXT
  5
CC1
330
C9A
100
AcDbEntity
  8
0
 62
   255
100
AcDbMText
 10
356.8782500675212
 20
-252.7695148487513
 30
0.0
 40
1.999999453552061
 41
0.0
 46
0.0
 71
     1
 72
     5
  1
Scale
 73
     1
 44
1.0
1001
AcDbBlockRepETag
1070
     1
1071
       46
1005
0
  0
MTEXT
  5
CC2
330
C9A
100
AcDbEntity
  8
0
 62
   255
100
AcDbMText
 10
384.7939704696303
 20
-264.9195248175762
 30
0.0
 40
4.508695652173911
 41
0.0
 46
0.0
 71
     1
 72
     5
  1
{\fISOCPEUR|b0|i0|c0|p34;\W1;A3}
  7
SLDTEXTSTYLE0
 73
     1
 44
1.0
1001
AcDbBlockRepETag
1070
     1
1071
       50
1005
0
  0
TEXT
  5
CC3
330
C9A
100
AcDbEntity
  8
0
  6
Continuous
 62
   255
100
AcDbText
 10
213.5367887974839
 20
-275.600626952933
 30
0.0
 40
1.72391304347826
  1
This drawing remains our property. Without written approval it may not be copied, reproduced or communicated or made available to third parties.
100
AcDbText
1001
AcDbBlockRepETag
1070
     1
1071
       51
1005
0
  0
MTEXT
  5
CC4
330
C9A
100
AcDbEntity
  8
0
 62
   255
100
AcDbMText
 10
28.38043281742353
 20
-272.4012695934838
 30
0.0
 40
1.999999453552061
 41
0.0
 46
0.0
 71
     1
 72
     5
  1
No.
 73
     1
 44
1.0
1001
AcDbBlockRepETag
1070
     1
1071
       52
1005
0
  0
MTEXT
  5
CC5
330
C9A
100
AcDbEntity
  8
0
 62
   255
100
AcDbMText
 10
62.8916152131303
 20
-272.5568974675624
 30
0.0
 40
1.999999453552061
 41
0.0
 46
0.0
 71
     1
 72
     5
  1
Modifications
 73
     1
 44
1.0
1001
AcDbBlockRepETag
1070
     1
1071
       53
1005
0
  0
MTEXT
  5
CC6
330
C9A
100
AcDbEntity
  8
0
 62
   255
100
AcDbMText
 10
113.8766488820463
 20
-272.4090513971577
 30
0.0
 40
1.999999453552061
 41
0.0
 46
0.0
 71
     1
 72
     5
  1
Communication
 73
     1
 44
1.0
1001
AcDbBlockRepETag
1070
     1
1071
       54
1005
0
  0
MTEXT
  5
CC7
330
C9A
100
AcDbEntity
  8
0
 62
   255
100
AcDbMText
 10
143.9645104743263
 20
-272.4579818509886
 30
0.0
 40
1.999999453552061
 41
0.0
 46
0.0
 71
     1
 72
     5
  1
Drawn
 73
     1
 44
1.0
1001
AcDbBlockRepETag
1070
     1
1071
       55
1005
0
  0
MTEXT
  5
CC8
330
C9A
100
AcDbEntity
  8
0
 62
   255
100
AcDbMText
 10
191.619644925147
 20
-272.537497781863
 30
0.0
 40
1.999999453552061
 41
0.0
 46
0.0
 71
     1
 72
     5
  1
Approved
 73
     1
 44
1.0
1001
AcDbBlockRepETag
1070
     1
1071
       56
1005
0
  0
MTEXT
  5
CC9
330
C9A
100
AcDbEntity
  8
0
 62
   255
100
AcDbMText
 10
336.1114445882952
 20
-264.9508328035223
 30
0.0
 40
4.508695652173911
 41
0.0
 46
0.0
 71
     1
 72
     5
  1
{\fISOCPEUR|b0|i0|c0|p34;\W1;Drg. No.}
  7
SLDTEXTSTYLE0
 73
     1
 44
1.0
1001
AcDbBlockRepETag
1070
     1
1071
       58
1005
0
  0
MTEXT
  5
CCA
330
C9A
100
AcDbEntity
  8
0
 62
   255
100
AcDbMText
 10
266.8224219787517
 20
-264.9557813549701
 30
0.0
 40
4.508695652173911
 41
0.0
 46
0.0
 71
     1
 72
     5
  1
{\fISOCPEUR|b0|i0|c0|p34;\W1;Description}
  7
SLDTEXTSTYLE0
 73
     1
 44
1.0
1001
AcDbBlockRepETag
1070
     1
1071
       59
1005
0
  0
MTEXT
  5
CCB
330
C9A
100
AcDbEntity
  8
0
 62
   255
100
AcDbMText
 10
358.084726654057
 20
-256.6405790150835
 30
0.0
 40
2.499999316940076
 41
0.0
 46
0.0
 71
     1
 72
     5
  1
X:1
 73
     1
 44
1.0
1001
AcDbBlockRepETag
1070
     1
1071
       60
1005
0
  0
MTEXT
  5
CCC
330
C9A
100
AcDbEntity
  8
0
 62
     1
100
AcDbMText
 10
214.8544231156891
 20
-262.8294794084584
 30
0.0
 40
3.999998907104123
 41
0.0
 46
0.0
 71
     1
 72
     5
  1
{\fISOCPEUR|b0|i0|c0|p34;\W1;Portescap}
  7
SLDTEXTSTYLE0
 73
     1
 44
1.0
1001
AcDbBlockRepETag
1070
     1
1071
       65
1005
0
  0
LINE
  5
CCD
330
C9A
100
AcDbEntity
  8
0
  6
Continuous
 62
   255
100
AcDbLine
 10
110.0000437319843
 20
-257.5000053278675
 30
0.0
 11
110.0000437319845
 21
-277.0
 31
0.0
1001
AcDbBlockRepETag
1070
     1
1071
       66
1005
0
  0
MTEXT
  5
CCE
330
C9A
100
AcDbEntity
  8
0
 62
   255
100
AcDbMText
 10
167.3053807416859
 20
-272.4579818509886
 30
0.0
 40
1.999999453552061
 41
0.0
 46
0.0
 71
     1
 72
     5
  1
Checked
 73
     1
 44
1.0
1001
AcDbBlockRepETag
1070
     1
1071
       67
1005
0
  0
LINE
  5
CCF
330
C9A
100
AcDbEntity
  8
0
  6
Continuous
 62
   255
100
AcDbLine
 10
374.7426216005465
 20
-262.0000040983596
 30
0.0
 11
374.7426216005463
 21
-277.0
 31
0.0
1001
AcDbBlockRepETag
1070
     1
1071
        5
1005
0
  0
MTEXT
  5
CD0
330
C9A
100
AcDbEntity
  8
0
 62
   255
100
AcDbMText
 10
376.1389629657327
 20
-264.9195248175762
 30
0.0
 40
4.508695652173911
 41
0.0
 46
0.0
 71
     1
 72
     5
  1
{\fISOCPEUR|b0|i0|c0|p34;\W1;00}
  7
SLDTEXTSTYLE0
 73
     1
 44
1.0
1001
AcDbBlockRepETag
1070
     1
1071
       50
1005
0
  0
TEXT
  5
CD1
330
C9A
100
AcDbEntity
  8
0
  6
Continuous
 62
   255
100
AcDbText
 10
377.1554068563314
 20
-275.600626952933
 30
0.0
 40
1.72391304347826
  1
Sheet 1 of 1
100
AcDbText
1001
AcDbBlockRepETag
1070
     1
1071
       51
1005
0
  0
INSERT
  5
CD2
330
C9A
100
AcDbEntity
  8
0
 62
   255
100
AcDbBlockReference
  2
A$C08716F59
 10
27.00001640958681
 20
-257.5000053278673
 30
0.0
  0
LINE
  5
CD3
330
C9A
100
AcDbEntity
  8
0
  6
Continuous
 62
   255
100
AcDbLine
 10
245.0000068467473
 20
-269.0000021857919
 30
0.0
 11
210.000016409587
 21
-269.0000021857919
 31
0.0
1001
AcDbBlockRepETag
1070
     1
1071
       38
1005
0
  0
TEXT
  5
CD4
330
C9A
100
AcDbEntity
  8
0
  6
Continuous
 62
   255
100
AcDbText
 10
213.5367887974839
 20
-271.7908875797558
 30
0.0
 40
1.72391304347826
  1
PI/R&D/F/18 Rev 00
100
AcDbText
1001
AcDbBlockRepETag
1070
     1
1071
       51
1005
0
  0
MTEXT
  5
CD5
330
C9A
100
AcDbEntity
  8
0
  6
Continuous
 62
   255
100
AcDbMText
 10
211.8594586296933
 20
-254.9213169641921
 30
0.0
 40
2.499999316940076
 41
122.5201940634145
 46
0.0
 71
     7
 72
     1
  1
All dimensions and tolerances are in mm unless & otherwise specified.
  7
style1
 73
     1
 44
1.0
1001
AcDbBlockRepETag
1070
     1
1071
       64
1005
0
  0
LINE
  5
CD6
330
C9A
100
AcDbEntity
  8
0
  6
Continuous
 62
   255
100
AcDbLine
 10
210.000016409587
 20
-262.0008059763035
 30
0.0
 11
257.6666700525782
 21
-262.0008059763035
 31
0.0
1001
AcDbBlockRepETag
1070
     1
1071
        3
1005
0
  0
LINE
  5
CD7
330
C9A
100
AcDbEntity
  8
0
  6
Continuous
 62
   255
100
AcDbLine
 10
210.000016409587
 20
-250.0008059763035
 30
0.0
 11
392.9999664096001
 21
-250.0008059763035
 31
0.0
1001
AcDbBlockRepETag
1070
     1
1071
        3
1005
0
  0
LINE
  5
CD8
330
C9A
100
AcDbEntity
  8
0
  6
Continuous
 62
   255
100
AcDbLine
 10
210.000016409587
 20
-256.0008059763035
 30
0.0
 11
352.9999773385601
 21
-256.0008059763033
 31
0.0
1001
AcDbBlockRepETag
1070
     1
1071
        3
1005
0
  0
ENDBLK
  5
CDC
330
C9A
100
AcDbEntity
  8
0
100
AcDbBlockEnd
  0
BLOCK
  5
1357
330
1356
100
AcDbEntity
  8
0
 62
   255
100
AcDbBlockBegin
  2
_Dot
 70
     0
 10
0.0
 20
0.0
 30
0.0
  3
_Dot
  1

  0
LWPOLYLINE
  5
1358
330
1356
100
AcDbEntity
  8
0
  6
ByBlock
 62
     0
100
AcDbPolyline
 90
        2
 70
     1
 43
0.5
 10
-0.25
 20
0.0
 42
1.0
 10
0.25
 20
0.0
 42
1.0
  0
LINE
  5
1359
330
1356
100
AcDbEntity
  8
0
  6
ByBlock
 62
     0
370
    -2
100
AcDbLine
 10
-0.5
 20
0.0
 30
0.0
 11
-1.0
 21
0.0
 31
0.0
  0
ENDBLK
  5
135A
330
1356
100
AcDbEntity
  8
0
 62
   255
100
AcDbBlockEnd
  0
BLOCK
  5
13B7
330
13B4
100
AcDbEntity
  8
0
 62
     1
100
AcDbBlockBegin
  2
A$C53560A2D
 70
     0
 10
0.0
 20
0.0
 30
0.0
  3
A$C53560A2D
  1

  0
HATCH
  5
13B8
330
13B4
100
AcDbEntity
  8
0
 62
     1
100
AcDbHatch
 10
0.0
 20
0.0
 30
0.0
210
0.0
220
0.0
230
1.0
  2
SOLID
 70
     1
 71
     0
 91
        1
 92
        7
 72
     0
 73
     1
 93
        8
 10
10.40639350736074
 20
-3.429580398453508
 10
9.8090548631219
 20
-3.429580398453494
 10
10.52161847102905
 20
-4.262224049876549
 10
9.562357823425486
 20
-5.017847907603865
 10
-0.1711005509629331
 20
-5.017847907603836
 10
-0.2076899027981653
 20
-5.086662246294196
 10
10.08230402145517
 20
-5.08666224629421
 10
11.12297052199432
 20
-4.266913789282654
 97
        0
 75
     0
 76
     1
 47
0.0237982239116982
 98
        1
 10
10.7687455105808
 20
-4.08916775948434
450
        0
451
        0
460
0.0
461
0.0
452
        0
462
0.0
453
        0
470

1001
ACAD
1010
0.0
1020
0.0
1030
0.0
  0
HATCH
  5
13B9
330
13B4
100
AcDbEntity
  8
0
 62
     3
100
AcDbHatch
 10
0.0
 20
0.0
 30
0.0
210
0.0
220
0.0
230
1.0
  2
SOLID
 70
     1
 71
     0
 91
       11
 92
        7
 72
     0
 73
     1
 93
        7
 10
1.491379020905242
 20
-2.772946682047759
 10
0.995217842298814
 20
-2.772946682047745
 10
-0.0788238170088675
 20
-4.792918690406422
 10
0.3668365951625674
 20
-4.792918690406408
 10
1.182574505556942
 20
-3.200386665146865
 10
1.390757209580953
 20
-4.792918690406394
 10
1.800184269306669
 20
-4.792918690406422
 97
        0
 92
        7
 72
     1
 73
     1
 93
       17
 10
3.143752721671431
 20
-3.446258598447029
 42
0.0
 10
2.816525880617575
 20
-3.446258598447073
 42
0.0
 10
2.903841276975811
 20
-3.028130514204149
 42
0.0
 10
2.485710676876634
 20
-3.168648538737229
 42
0.0
 10
2.427738889498414
 20
-3.446258598447029
 42
0.0
 10
2.156102845410656
 20
-3.446258598447029
 42
0.0
 10
2.108120116639496
 20
-3.699877260551375
 42
0.0
 10
2.374777094201759
 20
-3.699877260551375
 42
0.0
 10
2.197341484950982
 20
-4.54956488114216
 42
0.2314303255157967
 10
2.229132535142695
 20
-4.737573879785599
 42
0.2425677700453667
 10
2.562303738103139
 20
-4.840349188736823
 42
0.0
 10
2.853955581357978
 20
-4.793092213000163
 42
0.0
 10
2.904529503834567
 20
-4.550908380596793
 42
0.0
 10
2.695000291198482
 20
-4.550908380596808
 42
-0.4760549668863254
 10
2.615472085050156
 20
-4.409046856609066
 42
0.0
 10
2.763564085320922
 20
-3.699877260551402
 42
0.0
 10
3.095769992900442
 20
-3.699877260551402
 42
0.0
 97
        0
 92
        7
 72
     1
 73
     1
 93
       15
 10
3.902783104379238
 20
-3.703880319999356
 42
-0.2432435292258966
 10
4.160581046600099
 20
-3.728705991916442
 42
-0.2718544080322752
 10
4.214411423471688
 20
-3.906094591215776
 42
0.0
 10
4.02511501860107
 20
-4.8125801186696
 42
0.0
 10
4.425338595686183
 20
-4.812580118669615
 42
0.0
 10
4.618640162861423
 20
-3.843814600173103
 42
0.1442413094369809
 10
4.566882367577646
 20
-3.577394862249788
 42
0.1968270941560047
 10
4.312159611171806
 20
-3.438006898026016
 42
0.1671955009294615
 10
3.972511122600565
 20
-3.482973954396257
 42
0.0984224330473735
 10
3.770569059989042
 20
-3.640211074021848
 42
0.0
 10
3.934493518721126
 20
-2.855224430784346
 42
0.0
 10
3.538191043081439
 20
-2.855224430784359
 42
0.0
 10
3.129447181708882
 20
-4.812580118669629
 42
0.0
 10
3.525749657348569
 20
-4.812580118669629
 42
0.0
 10
3.717837455778577
 20
-3.892727417841853
 42
-0.1681505465182262
 97
        0
 92
        7
 72
     0
 73
     1
 93
        4
 10
5.609672511040399
 20
-2.855224430784303
 10
5.213370035400828
 20
-2.855224430784332
 10
4.804626174028157
 20
-4.8125801186696
 10
5.200928649667843
 20
-4.812580118669572
 97
        0
 92
        7
 72
     1
 73
     1
 93
       11
 10
6.952147240856731
 20
-3.566721980052093
 42
0.2003410362329726
 10
6.566896274917382
 20
-3.394380580118323
 42
0.1459636918781203
 10
6.221479418630623
 20
-3.437237506523857
 42
0.1329827864341785
 10
5.809957292924592
 20
-3.742009934847046
 42
0.1181218657170001
 10
5.613713825998559
 20
-4.246632228047602
 42
0.1453361361738481
 10
5.69221135937954
 20
-4.650330645507111
 42
0.1097723388638702
 10
5.927703226469532
 20
-4.840965604516455
 42
0.0801939741507773
 10
6.283139453583146
 20
-4.8800657463362
 42
0.1155273130323037
 10
6.714757499090807
 20
-4.716668932821008
 42
0.1356436716811775
 10
6.998631608933407
 20
-4.369984603229582
 42
0.1011385320105559
 10
7.1130128283948
 20
-3.973673703014938
 42
0.236317674944661
 97
        0
 92
       22
 72
     1
 73
     1
 93
       10
 10
6.677527194323886
 20
-4.138839615245061
 42
-0.0759023682782946
 10
6.566982042139159
 20
-4.423877995135413
 42
-0.2200816587143609
 10
6.300965840747893
 20
-4.599996581122823
 42
-0.1552209024106451
 10
6.095458780820705
 20
-4.534235363900407
 42
-0.2297088204471921
 10
6.01924221029344
 20
-4.338318807139089
 42
-0.0336344069359854
 10
6.058402942709959
 20
-4.066696381694796
 42
-0.0476503727704049
 10
6.143663624704514
 20
-3.862071844709261
 42
-0.1164757194866423
 10
6.339107330614125
 20
-3.691551275783935
 42
-0.2102767852864467
 10
6.596864975328571
 20
-3.697069810236698
 42
-0.1775077200810246
 10
6.697202341601665
 20
-3.873877008374406
 42
-0.1210907755229007
 97
        0
 92
        7
 72
     1
 73
     1
 93
       15
 10
7.838830780765817
 20
-3.892727417841783
 42
-0.1681505465179636
 10
8.02377642936608
 20
-3.703880319999441
 42
-0.2432435292261799
 10
8.281574371587225
 20
-3.72870599191637
 42
-0.2718544080325296
 10
8.335404748458811
 20
-3.906094591215861
 42
0.0
 10
8.146108343588196
 20
-4.812580118669559
 42
0.0
 10
8.546331920673251
 20
-4.812580118669585
 42
0.0
 10
8.739633487848607
 20
-3.843814600173075
 42
0.1869559109727573
 10
8.708571975710412
 20
-3.55414738959827
 42
0.2282764169136722
 10
8.434241485182552
 20
-3.416409065064058
 42
0.1548211452724478
 10
8.093504447587747
 20
-3.482973954396228
 42
0.0984224330473456
 10
7.891562384976282
 20
-3.640211074021777
 42
0.0
 10
7.935547234632507
 20
-3.429580398453508
 42
0.0
 10
7.539244758992822
 20
-3.429580398453508
 42
0.0
 10
7.250440506696121
 20
-4.812580118669559
 42
0.0
 10
7.646742982335753
 20
-4.812580118669572
 42
0.0
 97
        0
 92
        7
 72
     0
 73
     1
 93
        4
 10
9.625982522468632
 20
-3.429580398453524
 10
9.229680046829004
 20
-3.429580398453508
 10
8.940875794532303
 20
-4.812580118669559
 10
9.337178270172046
 20
-4.8125801186696
 97
        0
 92
        7
 72
     0
 73
     1
 93
        4
 10
9.745922131544659
 20
-2.855224430784318
 10
9.34961965590503
 20
-2.855224430784332
 10
9.27698869286246
 20
-3.203033026980861
 10
9.673291168502146
 20
-3.203033026980861
 97
        0
 92
        7
 72
     0
 73
     1
 93
        4
 10
12.03240295060681
 20
-3.429580398453508
 10
11.44364835907379
 20
-3.429580398453494
 10
10.87989922911413
 20
-3.888285852559178
 10
11.10949294143216
 20
-4.156570318460707
 97
        0
 92
        7
 72
     0
 73
     1
 93
        4
 10
11.05743489431273
 20
-4.407247884316163
 10
10.70348876138359
 20
-4.686056509542011
 10
11.02721331439767
 20
-5.064334590103313
 10
11.61975957304332
 20
-5.064334590103271
 97
        0
 75
     0
 76
     1
 47
0.0237982239116982
 98
       11
 10
1.427474595215414
 20
-3.466921616530398
 10
2.540276924309465
 20
-3.529962242013326
 10
3.403077140388461
 20
-3.872105201460513
 10
5.128677572546563
 20
-4.050614633904856
 10
6.869154243317836
 20
-3.872105201460513
 10
6.869154243317836
 20
-3.872105201460513
 10
7.657574707896684
 20
-4.184496350024359
 10
9.221850949254132
 20
-4.184360945182801
 10
9.578826617252671
 20
-3.161037064634811
 10
11.41130113635171
 20
-3.803588918816571
 10
11.19711616802232
 20
-4.874509392213795
450
        0
451
        0
460
0.0
461
0.0
452
        0
462
0.0
453
        0
470

1001
ACAD
1010
0.0
1020
0.0
1030
0.0
  0
ENDBLK
  5
13BA
330
13B4
100
AcDbEntity
  8
0
 62
     1
100
AcDbBlockEnd
  0
BLOCK
  5
13BE
330
13BB
100
AcDbEntity
  8
0
 62
     1
100
AcDbBlockBegin
  2
A$C25042B23
 70
     0
 10
0.0
 20
0.0
 30
0.0
  3
A$C25042B23
  1

  0
INSERT
  5
13BF
330
13BB
100
AcDbEntity
  8
0
 62
     1
100
AcDbBlockReference
  2
A$C53560A2D
 10
0.0000000000001137
 20
0.0
 30
0.0
  0
ENDBLK
  5
13C0
330
13BB
100
AcDbEntity
  8
0
 62
     1
100
AcDbBlockEnd
  0
BLOCK
  5
2104
330
2103
100
AcDbEntity
  8
0
100
AcDbBlockBegin
  2
_FILLED
 70
     0
 10
0.0
 20
0.0
 30
0.0
  3
_FILLED
  1

  0
SOLID
  5
2105
330
2103
100
AcDbEntity
  8
0
  6
ByBlock
 62
     0
100
AcDbTrace
 10
0.0
 20
0.0
 30
0.0
 11
-1.0
 21
0.1875
 31
0.0
 12
-1.0
 22
-0.1875
 32
0.0
 13
-1.0
 23
-0.1875
 33
0.0
  0
ENDBLK
  5
2106
330
2103
100
AcDbEntity
  8
0
  6
ByBlock
 62
     0
100
AcDbBlockEnd
  0
BLOCK
  5
2F39
330
2F38
100
AcDbEntity
  8
0
100
AcDbBlockBegin
  2
*D6
 70
     1
 10
0.0
 20
0.0
 30
0.0
  3
*D6
  1

  0
LINE
  5
2F3A
330
2F38
100
AcDbEntity
  8
0
  6
Continuous
 62
     0
370
    -2
100
AcDbLine
 10
1802.555021500383
 20
-480.9336425058048
 30
0.0
 11
1802.555021500383
 21
-488.3557146914713
 31
0.0
  0
LINE
  5
2F3B
330
2F38
100
AcDbEntity
  8
0
  6
Continuous
 62
     0
370
    -2
100
AcDbLine
 10
1847.055021181983
 20
-481.2336410539381
 30
0.0
 11
1847.055021181983
 21
-488.3557146914713
 31
0.0
  0
LINE
  5
2F3C
330
2F38
100
AcDbEntity
  8
0
  6
Continuous
 62
     0
370
    -2
100
AcDbLine
 10
1806.555021500383
 20
-488.1757146914714
 30
0.0
 11
1843.055021181983
 21
-488.1757146914714
 31
0.0
  0
INSERT
  5
2F3D
330
2F38
100
AcDbEntity
  8
0
  6
Continuous
 62
     0
370
    -2
100
AcDbBlockReference
  2
_FILLED
 10
1802.555021500383
 20
-488.1757146914714
 30
0.0
 41
4.0
 42
4.0
 43
4.0
 50
180.0
  0
INSERT
  5
2F3E
330
2F38
100
AcDbEntity
  8
0
  6
Continuous
 62
     0
370
    -2
100
AcDbBlockReference
  2
_FILLED
 10
1847.055021181983
 20
-488.1757146914714
 30
0.0
 41
4.0
 42
4.0
 43
4.0
  0
MTEXT
  5
2F3F
330
2F38
100
AcDbEntity
  8
0
  6
Continuous
 62
     5
100
AcDbMText
 10
1824.805021341183
 20
-486.6857146914713
 30
0.0
 40
2.799999999999998
 41
0.0
 46
0.0
 71
     5
 72
     1
  1
\A1;29.67±0.3
 73
     1
 44
1.0
  0
POINT
  5
2F40
330
2F38
100
AcDbEntity
  8
Defpoints
  6
Continuous
 62
     0
100
AcDbPoint
 10
1802.555021500383
 20
-480.8711425058048
 30
0.0
  0
POINT
  5
2F41
330
2F38
100
AcDbEntity
  8
Defpoints
  6
Continuous
 62
     0
100
AcDbPoint
 10
1847.055021181983
 20
-481.1711410539381
 30
0.0
  0
POINT
  5
2F42
330
2F38
100
AcDbEntity
  8
Defpoints
  6
Continuous
 62
     0
100
AcDbPoint
 10
1847.055021181983
 20
-488.1757146914714
 30
0.0
  0
ENDBLK
  5
2F43
330
2F38
100
AcDbEntity
  8
0
100
AcDbBlockEnd
  0
BLOCK
  5
3028
330
2F44
100
AcDbEntity
  8
0
100
AcDbBlockBegin
  2
A$C274A2516
 70
     0
 10
0.0
 20
0.0
 30
0.0
  3
A$C274A2516
  1

  0
DIMENSION
  5
2F45
330
2F44
100
AcDbEntity
  8
0
  6
Continuous
 62
     2
100
AcDbDimension
  2
*D6
 10
49.41318594722496
 20
1.185548929283584
 30
0.0
 11
27.1631861064252
 21
1.185548929283584
 31
0.0
 12
-1797.641835234758
 22
489.3612636207549
 32
0.0
 70
   128
 71
     0
 72
     0
 41
0.0
 42
29.66666645588333
 73
     0
 74
     0
 75
     0
  3
DIMSTYLE_8
100
AcDbAlignedDimension
 13
4.913186265624971
 23
8.490121114950227
 33
0.0
 14
49.41318594722496
 24
8.19012256681691
 34
0.0
100
AcDbRotatedDimension
  0
LINE
  5
2F46
330
2F44
100
AcDbEntity
  8
0
  6
Continuous
 62
     7
100
AcDbLine
 10
4.913186265624971
 20
30.62336891321689
 30
0.0
 11
4.913186265624971
 21
9.023539983350245
 31
0.0
  0
LINE
  5
2F47
330
2F44
100
AcDbEntity
  8
0
  6
Continuous
 62
     7
100
AcDbLine
 10
5.113185485291523
 20
30.82345444728361
 30
0.0
 11
5.113185485291523
 21
8.823454449283588
 31
0.0
  0
LINE
  5
2F48
330
2F44
100
AcDbEntity
  8
0
  6
Continuous
 62
     7
100
AcDbLine
 10
4.913187226958598
 20
30.62345408315025
 30
0.0
 11
5.113186634958309
 21
30.82345346661691
 31
0.0
  0
LINE
  5
2F49
330
2F44
100
AcDbEntity
  8
0
  6
Continuous
 62
     7
100
AcDbLine
 10
4.913187226958598
 20
9.023454813416947
 30
0.0
 11
5.113186634958309
 21
8.823455429950229
 31
0.0
  0
LWPOLYLINE
  5
2F4A
330
2F44
100
AcDbEntity
  8
0
  6
Continuous
 62
     7
100
AcDbPolyline
 90
        3
 70
     0
 43
0.0
 10
8.213186495558602
 20
10.47664903488356
 10
8.175811462891486
 20
10.67089466321692
 10
8.163188469091892
 20
10.85374136828358
  0
LINE
  5
2F4B
330
2F44
100
AcDbEntity
  8
0
  6
Continuous
 62
     7
100
AcDbLine
 10
7.713187482491775
 20
30.82345444728361
 30
0.0
 11
7.713187482491775
 21
8.823454449283588
 31
0.0
  0
LINE
  5
2F4C
330
2F44
100
AcDbEntity
  8
0
  6
Continuous
 62
     7
100
AcDbLine
 10
7.913186265624972
 20
30.62337005035028
 30
0.0
 11
7.913186265624972
 21
9.023538846216922
 31
0.0
  0
LINE
  5
2F4D
330
2F44
100
AcDbEntity
  8
0
  6
Continuous
 62
     7
100
AcDbLine
 10
8.213190692692021
 20
8.823454448283596
 30
0.0
 11
8.213188470958357
 21
10.47664542421694
 31
0.0
  0
LINE
  5
2F4E
330
2F44
100
AcDbEntity
  8
0
  6
Continuous
 62
     7
100
AcDbLine
 10
8.213188475758668
 20
29.17026347688358
 30
0.0
 11
8.213190692692021
 21
30.8234544482836
 31
0.0
  0
LINE
  5
2F4F
330
2F44
100
AcDbEntity
  8
0
  6
Continuous
 62
     7
100
AcDbLine
 10
8.213188774424907
 20
11.17667091475027
 30
0.0
 11
8.213186622558621
 21
28.47024295441696
 31
0.0
  0
LINE
  5
2F50
330
2F44
100
AcDbEntity
  8
0
  6
Continuous
 62
     7
100
AcDbLine
 10
9.163186265624972
 20
28.92428466195026
 30
0.0
 11
9.163186265624972
 21
28.58013880015028
 31
0.0
  0
LINE
  5
2F51
330
2F44
100
AcDbEntity
  8
0
  6
Continuous
 62
     7
100
AcDbLine
 10
9.163186265624972
 20
11.06677009641692
 30
0.0
 11
9.163186265624972
 21
10.72262423461694
 31
0.0
  0
LINE
  5
2F52
330
2F44
100
AcDbEntity
  8
0
  6
Continuous
 62
     7
100
AcDbLine
 10
10.11318626562524
 20
29.46918227648359
 30
0.0
 11
10.11318626562524
 21
28.6785390486836
 31
0.0
  0
LINE
  5
2F53
330
2F44
100
AcDbEntity
  8
0
  6
Continuous
 62
     7
100
AcDbLine
 10
10.11318626562524
 20
28.58013880015028
 30
0.0
 11
10.11318626562524
 21
28.03524118561695
 31
0.0
  0
LINE
  5
2F54
330
2F44
100
AcDbEntity
  8
0
  6
Continuous
 62
     7
100
AcDbLine
 10
10.11318626562524
 20
11.61166771095025
 30
0.0
 11
10.11318626562524
 21
11.06677009641692
 31
0.0
  0
LINE
  5
2F55
330
2F44
100
AcDbEntity
  8
0
  6
Continuous
 62
     7
100
AcDbLine
 10
10.11318626562524
 20
10.1777266200836
 30
0.0
 11
10.11318626562524
 21
10.96836984788359
 31
0.0
  0
LINE
  5
2F56
330
2F44
100
AcDbEntity
  8
0
  6
Continuous
 62
     7
100
AcDbLine
 10
10.71318626562515
 20
10.1777266200836
 30
0.0
 11
10.71318626562515
 21
10.96836984788359
 31
0.0
  0
LINE
  5
2F57
330
2F44
100
AcDbEntity
  8
0
  6
Continuous
 62
     7
100
AcDbLine
 10
10.71318626562515
 20
11.06677009641692
 30
0.0
 11
10.71318626562515
 21
11.61166771095025
 31
0.0
  0
LINE
  5
2F58
330
2F44
100
AcDbEntity
  8
0
  6
Continuous
 62
     7
100
AcDbLine
 10
10.71318626562515
 20
28.03524118561695
 30
0.0
 11
10.71318626562515
 21
28.58013880015028
 31
0.0
  0
LINE
  5
2F59
330
2F44
100
AcDbEntity
  8
0
  6
Continuous
 62
     7
100
AcDbLine
 10
10.71318626562515
 20
28.6785390486836
 30
0.0
 11
10.71318626562515
 21
29.46918227648359
 31
0.0
  0
LWPOLYLINE
  5
2F5A
330
2F44
100
AcDbEntity
  8
0
  6
Continuous
 62
     7
100
AcDbPolyline
 90
        3
 70
     0
 43
0.0
 10
8.163188469091892
 20
28.79316752828362
 10
8.17583730295837
 20
28.9762081701503
 10
8.213186495224816
 20
29.17025986061691
  0
LWPOLYLINE
  5
2F5B
330
2F44
100
AcDbEntity
  8
0
  6
Continuous
 62
     7
100
AcDbPolyline
 90
        3
 70
     0
 43
0.0
 10
8.163188469091892
 20
10.85374136828358
 10
8.175650471758217
 20
11.02190699701691
 10
8.213186521692021
 20
11.17666580955023
  0
LWPOLYLINE
  5
2F5C
330
2F44
100
AcDbEntity
  8
0
  6
Continuous
 62
     7
100
AcDbPolyline
 90
        4
 70
     0
 43
0.0
 10
8.213188475758668
 20
29.17026347688358
 10
8.377277491491895
 20
29.35729460461693
 10
8.610037768691652
 20
29.51662803501694
 10
8.764919697225195
 20
29.58531678115026
  0
LINE
  5
2F5D
330
2F44
100
AcDbEntity
  8
0
  6
Continuous
 62
     7
100
AcDbLine
 10
7.913186265624972
 20
30.52345381181692
 30
0.0
 11
8.213190692692021
 21
30.82345822101689
 31
0.0
  0
LINE
  5
2F5E
330
2F44
100
AcDbEntity
  8
0
  6
Continuous
 62
     7
100
AcDbLine
 10
7.913186265624972
 20
9.123458754616931
 30
0.0
 11
8.213190692692021
 21
8.823454448283596
 31
0.0
  0
LWPOLYLINE
  5
2F5F
330
2F44
100
AcDbEntity
  8
0
  6
Continuous
 62
     7
100
AcDbPolyline
 90
        3
 70
     0
 43
0.0
 10
8.213186301024961
 20
28.4702436676169
 10
8.175676291091804
 20
28.62482283895025
 10
8.163188469091892
 20
28.79316752828362
  0
LINE
  5
2F60
330
2F44
100
AcDbEntity
  8
0
  6
Continuous
 62
     7
100
AcDbLine
 10
11.66318626562497
 20
10.72262423461694
 30
0.0
 11
11.66318626562497
 21
11.06677009641692
 31
0.0
  0
LINE
  5
2F61
330
2F44
100
AcDbEntity
  8
0
  6
Continuous
 62
     7
100
AcDbLine
 10
11.66318626562497
 20
28.58013880015028
 30
0.0
 11
11.66318626562497
 21
28.92428466195026
 31
0.0
  0
LWPOLYLINE
  5
2F62
330
2F44
100
AcDbEntity
  8
0
  6
Continuous
 62
     7
100
AcDbPolyline
 90
        6
 70
     0
 43
0.0
 10
12.71318626562515
 20
10.8127819610836
 10
12.67443109789155
 20
10.5988917218836
 10
12.5559666740919
 20
10.39820804301695
 10
12.36716347122501
 20
10.22491104148361
 10
12.12976482955855
 20
10.08585990861689
 10
12.05166921982481
 20
10.05490441075022
  0
LWPOLYLINE
  5
2F63
330
2F44
100
AcDbEntity
  8
0
  6
Continuous
 62
     7
100
AcDbPolyline
 90
        4
 70
     0
 43
0.0
 10
12.71318626562515
 20
28.8341269354836
 10
12.66649113462517
 20
28.58702137181694
 10
12.53107403609192
 20
28.3411981496169
 10
12.31666526162507
 20
28.10848064181693
  0
LINE
  5
2F64
330
2F44
100
AcDbEntity
  8
0
  6
Continuous
 62
     7
100
AcDbLine
 10
12.31666526162507
 20
28.10848064181693
 30
0.0
 11
12.03189305542537
 21
27.89767473495027
 31
0.0
  0
LWPOLYLINE
  5
2F65
330
2F44
100
AcDbEntity
  8
0
  6
Continuous
 62
     7
100
AcDbPolyline
 90
       21
 70
     0
 43
0.0
 10
12.01340827709191
 20
27.88626525815022
 10
12.17785728969193
 20
27.99867631768359
 10
12.31844215395858
 20
28.1212776510169
 10
12.43326170075852
 20
28.25241128548356
 10
12.52076319275829
 20
28.39030386348355
 10
12.57976332229191
 20
28.53309062461693
 10
12.60946421382505
 20
28.67884062275022
 10
12.60946421382505
 20
28.82558283928359
 10
12.57976332229191
 20
28.97133283748355
 10
12.52076319275829
 20
29.1141195985503
 10
12.43326170075852
 20
29.25201217661692
 10
12.31844215395858
 20
29.3831458110169
 10
12.17785728969193
 20
29.50574714435021
 10
12.01340827709191
 20
29.61815820388358
 10
11.82731900695853
 20
29.71885882295027
 10
11.62210601735842
 20
29.80648719828361
 10
11.40054446209205
 20
29.87985830655026
 10
11.16563058095835
 20
29.93797992935026
 10
10.92054118129181
 20
29.98006607141696
 10
10.66859067669202
 20
30.00554758995026
 10
10.41318626562497
 20
30.01407989101693
  0
LINE
  5
2F66
330
2F44
100
AcDbEntity
  8
0
  6
Continuous
 62
     7
100
AcDbLine
 10
12.03189305542537
 20
27.89767473495027
 30
0.0
 11
11.97977812602539
 21
27.86622437968361
 31
0.0
  0
LINE
  5
2F67
330
2F44
100
AcDbEntity
  8
0
  6
Continuous
 62
     7
100
AcDbLine
 10
11.98388822782499
 20
27.86866520768359
 30
0.0
 11
12.01340827709191
 21
27.88626525815022
 31
0.0
  0
LWPOLYLINE
  5
2F68
330
2F44
100
AcDbEntity
  8
0
  6
Continuous
 62
     7
100
AcDbPolyline
 90
        4
 70
     0
 43
0.0
 10
8.769914140758372
 20
10.05817810475025
 10
8.601865428958717
 20
10.13479476535025
 10
8.377584375958576
 20
10.28934797315026
 10
8.213188470958357
 20
10.47664542421694
  0
LINE
  5
2F69
330
2F44
100
AcDbEntity
  8
0
  6
Continuous
 62
     7
100
AcDbLine
 10
11.98388822782499
 20
11.7782436888836
 30
0.0
 11
11.82731900695853
 21
11.86134425741693
 31
0.0
  0
LINE
  5
2F6A
330
2F44
100
AcDbEntity
  8
0
  6
Continuous
 62
     7
100
AcDbLine
 10
12.01340827709191
 20
11.76064363841692
 30
0.0
 11
11.98388822782499
 21
11.7782436888836
 31
0.0
  0
LINE
  5
2F6B
330
2F44
100
AcDbEntity
  8
0
  6
Continuous
 62
     7
100
AcDbLine
 10
11.98019621955836
 20
11.78028050148356
 30
0.0
 11
12.0739060570254
 21
11.72254413188358
 31
0.0
  0
LWPOLYLINE
  5
2F6C
330
2F44
100
AcDbEntity
  8
0
  6
Continuous
 62
     7
100
AcDbPolyline
 90
        5
 70
     0
 43
0.0
 10
12.0739060570254
 20
11.72254413188358
 10
12.34085617735855
 20
11.51650455168357
 10
12.53970442229183
 20
11.29378797568358
 10
12.6674515269583
 20
11.05729195595023
 10
12.71318626562515
 20
10.8127819610836
  0
LWPOLYLINE
  5
2F6D
330
2F44
100
AcDbEntity
  8
0
  6
Continuous
 62
     7
100
AcDbPolyline
 90
        3
 70
     0
 43
0.0
 10
8.213188774424907
 20
11.17667091475027
 10
8.378099694958564
 20
11.40762558268358
 10
8.611091128691896
 20
11.62239074941692
  0
LINE
  5
2F6E
330
2F44
100
AcDbEntity
  8
0
  6
Continuous
 62
     7
100
AcDbLine
 10
11.82731900695853
 20
27.78556463915021
 30
0.0
 11
11.98388822782499
 21
27.86866520768359
 31
0.0
  0
LWPOLYLINE
  5
2F6F
330
2F44
100
AcDbEntity
  8
0
  6
Continuous
 62
     7
100
AcDbPolyline
 90
        8
 70
     0
 43
0.0
 10
11.97977812602539
 20
27.86622437968361
 10
11.68366860235846
 20
27.71753302475025
 10
11.26093544162495
 20
27.57328605748359
 10
10.77782911862505
 20
27.48484447441689
 10
10.27437961162513
 20
27.46812908748359
 10
9.778741541358158
 20
27.52504237128363
 10
9.329011910491772
 20
27.64532754215025
 10
8.951168479492025
 20
27.80833628295028
  0
LINE
  5
2F70
330
2F44
100
AcDbEntity
  8
0
  6
Continuous
 62
     7
100
AcDbLine
 10
11.62210601735842
 20
27.69793626375025
 30
0.0
 11
11.82731900695853
 21
27.78556463915021
 31
0.0
  0
LWPOLYLINE
  5
2F71
330
2F44
100
AcDbEntity
  8
0
  6
Continuous
 62
     7
100
AcDbPolyline
 90
        6
 70
     0
 43
0.0
 10
11.62210601735842
 20
11.94897263281694
 10
11.40054446209205
 20
12.0223437410836
 10
11.16563058095835
 20
12.0804653638836
 10
10.92054118129181
 20
12.12255150595024
 10
10.66859067669202
 20
12.14803302441692
 10
10.41318626562497
 20
12.1565653254836
  0
LINE
  5
2F72
330
2F44
100
AcDbEntity
  8
0
  6
Continuous
 62
     7
100
AcDbLine
 10
11.82731900695853
 20
11.86134425741693
 30
0.0
 11
11.62210601735842
 21
11.94897263281694
 31
0.0
  0
LINE
  5
2F73
330
2F44
100
AcDbEntity
  8
0
  6
Continuous
 62
     7
100
AcDbLine
 10
7.913185039758444
 20
9.023454759816956
 30
0.0
 11
7.713185951958166
 21
8.8234557004169
 31
0.0
  0
LWPOLYLINE
  5
2F74
330
2F44
100
AcDbEntity
  8
0
  6
Continuous
 62
     7
100
AcDbPolyline
 90
       21
 70
     0
 43
0.0
 10
41.41318626562497
 20
9.632829005550263
 10
41.66859067669202
 20
9.641361306616943
 10
41.92054118129179
 20
9.66684282515024
 10
42.16563058095835
 20
9.708928967216934
 10
42.40054446209206
 20
9.767050590016935
 10
42.62210601735842
 20
9.840421698283591
 10
42.82731900695853
 20
9.92805007361693
 10
43.0134082770919
 20
10.02875069268361
 10
43.17785728969193
 20
10.14116175221693
 10
43.31844215395857
 20
10.26376308555024
 10
43.43326170075852
 20
10.39489671995028
 10
43.5207631927583
 20
10.53278929801695
 10
43.57976332229191
 20
10.67557605908359
 10
43.60946421382504
 20
10.82132605728361
 10
43.60946421382504
 20
10.96806827381692
 10
43.57976332229191
 20
11.11381827195026
 10
43.5207631927583
 20
11.25660503308359
 10
43.43326170075852
 20
11.39449761108358
 10
43.31844215395857
 20
11.5256312455503
 10
43.17785728969193
 20
11.64823257888361
 10
43.0134082770919
 20
11.76064363841692
  0
LWPOLYLINE
  5
2F75
330
2F44
100
AcDbEntity
  8
0
  6
Continuous
 62
     7
100
AcDbPolyline
 90
       21
 70
     0
 43
0.0
 10
10.41318626562497
 20
9.632829005550263
 10
10.66859067669202
 20
9.641361306616943
 10
10.92054118129181
 20
9.66684282515024
 10
11.16563058095835
 20
9.708928967216934
 10
11.40054446209205
 20
9.767050590016935
 10
11.62210601735842
 20
9.840421698283591
 10
11.82731900695853
 20
9.92805007361693
 10
12.01340827709191
 20
10.02875069268361
 10
12.17785728969193
 20
10.14116175221693
 10
12.31844215395858
 20
10.26376308555024
 10
12.43326170075852
 20
10.39489671995028
 10
12.52076319275829
 20
10.53278929801695
 10
12.57976332229191
 20
10.67557605908359
 10
12.60946421382505
 20
10.82132605728361
 10
12.60946421382505
 20
10.96806827381692
 10
12.57976332229191
 20
11.11381827195026
 10
12.52076319275829
 20
11.25660503308359
 10
12.43326170075852
 20
11.39449761108358
 10
12.31844215395858
 20
11.5256312455503
 10
12.17785728969193
 20
11.64823257888361
 10
12.01340827709191
 20
11.76064363841692
  0
LINE
  5
2F76
330
2F44
100
AcDbEntity
  8
02___PRT_ALL_AXES
  6
Continuous
 62
     7
100
AcDbLine
 10
49.21318626562515
 20
8.323454448283596
 30
0.0
 11
44.11318626562525
 21
8.323454448283596
 31
0.0
  0
LINE
  5
2F77
330
2F44
100
AcDbEntity
  8
02___PRT_ALL_AXES
  6
Continuous
 62
     7
100
AcDbLine
 10
43.61319140775822
 20
8.823454448283596
 30
0.0
 11
8.213190692692021
 21
8.823454448283596
 31
0.0
  0
LINE
  5
2F78
330
2F44
100
AcDbEntity
  8
02___PRT_ALL_AXES
  6
Continuous
 62
     7
100
AcDbLine
 10
5.113185653358414
 20
8.823454448283596
 30
0.0
 11
7.713187204091808
 21
8.823454448283596
 31
0.0
  0
LINE
  5
2F79
330
2F44
100
AcDbEntity
  8
0
  6
Continuous
 62
     7
100
AcDbLine
 10
10.11318626562524
 20
10.1777266200836
 30
0.0
 11
10.71318626562515
 21
10.1777266200836
 31
0.0
  0
LINE
  5
2F7A
330
2F44
100
AcDbEntity
  8
0
  6
Continuous
 62
     7
100
AcDbLine
 10
41.11318626562524
 20
10.1777266200836
 30
0.0
 11
41.71318626562515
 21
10.1777266200836
 31
0.0
  0
LINE
  5
2F7B
330
2F44
100
AcDbEntity
  8
0
  6
Continuous
 62
     7
100
AcDbLine
 10
10.11318626562524
 20
10.42347223335025
 30
0.0
 11
10.71318626562515
 21
10.42347223335025
 31
0.0
  0
LINE
  5
2F7C
330
2F44
100
AcDbEntity
  8
0
  6
Continuous
 62
     7
100
AcDbLine
 10
41.11318626562524
 20
10.42347223335025
 30
0.0
 11
41.71318626562515
 21
10.42347223335025
 31
0.0
  0
LINE
  5
2F7D
330
2F44
100
AcDbEntity
  8
0
  6
Continuous
 62
     7
100
AcDbLine
 10
9.163186265624972
 20
10.72262423461694
 30
0.0
 11
10.11318626562524
 21
10.72262423461694
 31
0.0
  0
LINE
  5
2F7E
330
2F44
100
AcDbEntity
  8
0
  6
Continuous
 62
     7
100
AcDbLine
 10
10.71318626562515
 20
10.72262423461694
 30
0.0
 11
11.66318626562497
 21
10.72262423461694
 31
0.0
  0
LINE
  5
2F7F
330
2F44
100
AcDbEntity
  8
0
  6
Continuous
 62
     7
100
AcDbLine
 10
40.16318626562497
 20
10.72262423461694
 30
0.0
 11
41.11318626562524
 21
10.72262423461694
 31
0.0
  0
LINE
  5
2F80
330
2F44
100
AcDbEntity
  8
0
  6
Continuous
 62
     7
100
AcDbLine
 10
41.71318626562515
 20
10.72262423461694
 30
0.0
 11
42.66318626562497
 21
10.72262423461694
 31
0.0
  0
LINE
  5
2F81
330
2F44
100
AcDbEntity
  8
0
  6
Continuous
 62
     7
100
AcDbLine
 10
9.163186265624972
 20
10.96836984788359
 30
0.0
 11
10.11318626562524
 21
10.96836984788359
 31
0.0
  0
LINE
  5
2F82
330
2F44
100
AcDbEntity
  8
0
  6
Continuous
 62
     7
100
AcDbLine
 10
10.71318626562515
 20
10.96836984788359
 30
0.0
 11
11.66318626562497
 21
10.96836984788359
 31
0.0
  0
LINE
  5
2F83
330
2F44
100
AcDbEntity
  8
0
  6
Continuous
 62
     7
100
AcDbLine
 10
40.16318626562497
 20
10.96836984788359
 30
0.0
 11
41.11318626562524
 21
10.96836984788359
 31
0.0
  0
LINE
  5
2F84
330
2F44
100
AcDbEntity
  8
0
  6
Continuous
 62
     7
100
AcDbLine
 10
41.71318626562515
 20
10.96836984788359
 30
0.0
 11
42.66318626562497
 21
10.96836984788359
 31
0.0
  0
LINE
  5
2F85
330
2F44
100
AcDbEntity
  8
0
  6
Continuous
 62
     7
100
AcDbLine
 10
42.66318626562497
 20
11.06677009641692
 30
0.0
 11
41.71318626562515
 21
11.06677009641692
 31
0.0
  0
LINE
  5
2F86
330
2F44
100
AcDbEntity
  8
0
  6
Continuous
 62
     7
100
AcDbLine
 10
41.11318626562524
 20
11.06677009641692
 30
0.0
 11
40.16318626562497
 21
11.06677009641692
 31
0.0
  0
LINE
  5
2F87
330
2F44
100
AcDbEntity
  8
0
  6
Continuous
 62
     7
100
AcDbLine
 10
11.66318626562497
 20
11.06677009641692
 30
0.0
 11
10.71318626562515
 21
11.06677009641692
 31
0.0
  0
LINE
  5
2F88
330
2F44
100
AcDbEntity
  8
0
  6
Continuous
 62
     7
100
AcDbLine
 10
10.11318626562524
 20
11.06677009641692
 30
0.0
 11
9.163186265624972
 21
11.06677009641692
 31
0.0
  0
LINE
  5
2F89
330
2F44
100
AcDbEntity
  8
0
  6
Continuous
 62
     7
100
AcDbLine
 10
41.71318626562515
 20
11.61166771095025
 30
0.0
 11
41.11318626562524
 21
11.61166771095025
 31
0.0
  0
LINE
  5
2F8A
330
2F44
100
AcDbEntity
  8
0
  6
Continuous
 62
     7
100
AcDbLine
 10
10.71318626562515
 20
11.61166771095025
 30
0.0
 11
10.11318626562524
 21
11.61166771095025
 31
0.0
  0
LWPOLYLINE
  5
2F8B
330
2F44
100
AcDbEntity
  8
0
  6
Continuous
 62
     7
100
AcDbPolyline
 90
       21
 70
     0
 43
0.0
 10
10.41318626562497
 20
9.632829005550263
 10
10.15778185455838
 20
9.641361306616943
 10
9.905831350024982
 20
9.66684282515024
 10
9.660741950292047
 20
9.708928967216934
 10
9.42582806922519
 20
9.767050590016935
 10
9.20426651389198
 20
9.840421698283591
 10
8.999053524291866
 20
9.92805007361693
 10
8.812964254158488
 20
10.02875069268361
 10
8.648515241558468
 20
10.14116175221693
 10
8.507930377291813
 20
10.26376308555024
 10
8.393110830491878
 20
10.39489671995028
 10
8.305609338558497
 20
10.53278929801695
 10
8.246609209024882
 20
10.67557605908359
 10
8.21690831742535
 20
10.82132605728361
 10
8.21690831742535
 20
10.96806827381692
 10
8.246609209024882
 20
11.11381827195026
 10
8.305609338558497
 20
11.25660503308359
 10
8.393110830491878
 20
11.39449761108358
 10
8.507930377291813
 20
11.5256312455503
 10
8.648515241558468
 20
11.64823257888361
 10
8.812964254158488
 20
11.76064363841692
  0
LWPOLYLINE
  5
2F8C
330
2F44
100
AcDbEntity
  8
0
  6
Continuous
 62
     7
100
AcDbPolyline
 90
       10
 70
     0
 43
0.0
 10
41.41318626562497
 20
9.632829005550263
 10
41.15778185455837
 20
9.641361306616943
 10
40.90583135002497
 20
9.66684282515024
 10
40.66074195029204
 20
9.708928967216934
 10
40.42582806922519
 20
9.767050590016935
 10
40.20426651389198
 20
9.840421698283591
 10
39.99905352429187
 20
9.92805007361693
 10
39.8129642541585
 20
10.02875069268361
 10
39.64851524155847
 20
10.14116175221693
 10
39.50793037729182
 20
10.26376308555024
  0
LINE
  5
2F8D
330
2F44
100
AcDbEntity
  8
0
  6
Continuous
 62
     7
100
AcDbLine
 10
7.913185039758444
 20
30.62345413675024
 30
0.0
 11
7.713185951958166
 21
30.82345319615024
 31
0.0
  0
LINE
  5
2F8E
330
2F44
100
AcDbEntity
  8
0
  6
Continuous
 62
     7
100
AcDbLine
 10
8.611091128691896
 20
11.62239074941692
 30
0.0
 11
8.846855555958427
 21
11.78085906961695
 31
0.0
  0
LINE
  5
2F8F
330
2F44
100
AcDbEntity
  8
0
  6
Continuous
 62
     7
100
AcDbLine
 10
8.812964254158488
 20
11.76064363841692
 30
0.0
 11
8.842484303424953
 21
11.7782436888836
 31
0.0
  0
LWPOLYLINE
  5
2F90
330
2F44
100
AcDbEntity
  8
0
  6
Continuous
 62
     7
100
AcDbPolyline
 90
       10
 70
     0
 43
0.0
 10
8.846855555958427
 20
11.78085906961695
 10
8.909865266558425
 20
11.81646682221691
 10
9.268224909958462
 20
11.9796173426169
 10
9.669420999091926
 20
12.09903001928359
 10
10.09046133275842
 20
12.16631348475022
 10
10.51934873755863
 20
12.17995032475028
 10
10.94555498662521
 20
12.13972932795025
 10
11.35820502309161
 20
12.04646390721694
 10
11.74243219462505
 20
11.90343902028354
 10
11.98019621955836
 20
11.78028050148356
  0
LINE
  5
2F91
330
2F44
100
AcDbEntity
  8
0
  6
Continuous
 62
     7
100
AcDbLine
 10
42.40054446209206
 20
27.62456515548361
 30
0.0
 11
42.62210601735842
 21
27.69793626375025
 31
0.0
  0
LINE
  5
2F92
330
2F44
100
AcDbEntity
  8
02___PRT_ALL_AXES
  6
Continuous
 62
     7
100
AcDbLine
 10
59.21318626562515
 20
12.8234544482836
 30
0.0
 11
49.41318626562497
 21
12.8234544482836
 31
0.0
  0
LINE
  5
2F93
330
2F44
100
AcDbEntity
  8
0
  6
Continuous
 62
     7
100
AcDbLine
 10
75.81325582075852
 20
13.55505757315023
 30
0.0
 11
76.26410046122508
 21
13.55505757315023
 31
0.0
  0
LINE
  5
2F94
330
2F44
100
AcDbEntity
  8
02___PRT_ALL_AXES
  6
Continuous
 62
     7
100
AcDbLine
 10
62.71318626562515
 20
15.3234544482836
 30
0.0
 11
59.61318626562523
 21
15.3234544482836
 31
0.0
  0
LINE
  5
2F95
330
2F44
100
AcDbEntity
  8
02___PRT_ALL_AXES
  6
Continuous
 62
     7
100
AcDbLine
 10
64.84464883915871
 20
15.3234544482836
 30
0.0
 11
72.54464883915851
 21
15.3234544482836
 31
0.0
  0
LWPOLYLINE
  5
2F96
330
2F44
100
AcDbEntity
  8
02___PRT_ALL_AXES
  6
Continuous
 62
     7
100
AcDbPolyline
 90
        6
 70
     0
 43
0.0
 10
39.77301669529197
 20
10.05605731708357
 10
39.64442661809199
 20
10.11192043455025
 10
39.42551643995829
 20
10.25008211135025
 10
39.2544540539584
 20
10.41807823615028
 10
39.14794905195821
 20
10.60985040681692
 10
39.11318626562525
 20
10.8127819610836
  0
LINE
  5
2F97
330
2F44
100
AcDbEntity
  8
0
  6
Continuous
 62
     7
100
AcDbLine
 10
8.999053524291866
 20
27.78556463915021
 30
0.0
 11
8.842484303424953
 21
27.86866520768359
 31
0.0
  0
LINE
  5
2F98
330
2F44
100
AcDbEntity
  8
0
  6
Continuous
 62
     7
100
AcDbLine
 10
8.951168479492025
 20
27.80833628295028
 30
0.0
 11
8.846290845491692
 21
27.86628302555028
 31
0.0
  0
LINE
  5
2F99
330
2F44
100
AcDbEntity
  8
0
  6
Continuous
 62
     7
100
AcDbLine
 10
8.842484303424953
 20
27.86866520768359
 30
0.0
 11
8.812964254158488
 21
27.88626525815022
 31
0.0
  0
LWPOLYLINE
  5
2F9A
330
2F44
100
AcDbEntity
  8
0
  6
Continuous
 62
     7
100
AcDbPolyline
 90
        4
 70
     0
 43
0.0
 10
8.846290845491692
 20
27.86628302555028
 10
8.637064237225331
 20
28.0047897214169
 10
8.387900010158316
 20
28.22842845488361
 10
8.213186622558621
 20
28.47024295441696
  0
LWPOLYLINE
  5
2F9B
330
2F44
100
AcDbEntity
  8
0
  6
Continuous
 62
     7
100
AcDbPolyline
 90
       21
 70
     0
 43
0.0
 10
8.812964254158488
 20
27.88626525815022
 10
8.648515241558468
 20
27.99867631768359
 10
8.507930377291813
 20
28.1212776510169
 10
8.393110830491878
 20
28.25241128548356
 10
8.305609338558497
 20
28.39030386348355
 10
8.246609209024882
 20
28.53309062461693
 10
8.21690831742535
 20
28.67884062275022
 10
8.21690831742535
 20
28.82558283928359
 10
8.246609209024882
 20
28.97133283748355
 10
8.305609338558497
 20
29.1141195985503
 10
8.393110830491878
 20
29.25201217661692
 10
8.507930377291813
 20
29.3831458110169
 10
8.648515241558468
 20
29.50574714435021
 10
8.812964254158488
 20
29.61815820388358
 10
8.999053524291866
 20
29.71885882295027
 10
9.20426651389198
 20
29.80648719828361
 10
9.42582806922519
 20
29.87985830655026
 10
9.660741950292047
 20
29.93797992935026
 10
9.905831350024982
 20
29.98006607141696
 10
10.15778185455838
 20
30.00554758995026
 10
10.41318626562497
 20
30.01407989101693
  0
LWPOLYLINE
  5
2F9C
330
2F44
100
AcDbEntity
  8
0
  6
Continuous
 62
     7
100
AcDbPolyline
 90
       11
 70
     0
 43
0.0
 10
39.39311083049188
 20
29.25201217661692
 10
39.50793037729182
 20
29.3831458110169
 10
39.64851524155847
 20
29.50574714435021
 10
39.8129642541585
 20
29.61815820388358
 10
39.99905352429187
 20
29.71885882295027
 10
40.20426651389198
 20
29.80648719828361
 10
40.42582806922519
 20
29.87985830655026
 10
40.66074195029204
 20
29.93797992935026
 10
40.90583135002497
 20
29.98006607141696
 10
41.15778185455837
 20
30.00554758995026
 10
41.41318626562497
 20
30.01407989101693
  0
LINE
  5
2F9D
330
2F44
100
AcDbEntity
  8
0
  6
Continuous
 62
     7
100
AcDbLine
 10
43.91318702595845
 20
31.12345368788357
 30
0.0
 11
44.11318703935831
 21
31.3234536744169
 31
0.0
  0
LWPOLYLINE
  5
2F9E
330
2F44
100
AcDbEntity
  8
0
  6
Continuous
 62
     7
100
AcDbPolyline
 90
       21
 70
     0
 43
0.0
 10
43.0134082770919
 20
27.88626525815022
 10
43.17785728969193
 20
27.99867631768359
 10
43.31844215395857
 20
28.1212776510169
 10
43.43326170075852
 20
28.25241128548356
 10
43.5207631927583
 20
28.39030386348355
 10
43.57976332229191
 20
28.53309062461693
 10
43.60946421382504
 20
28.67884062275022
 10
43.60946421382504
 20
28.82558283928359
 10
43.57976332229191
 20
28.97133283748355
 10
43.5207631927583
 20
29.1141195985503
 10
43.43326170075852
 20
29.25201217661692
 10
43.31844215395857
 20
29.3831458110169
 10
43.17785728969193
 20
29.50574714435021
 10
43.0134082770919
 20
29.61815820388358
 10
42.82731900695853
 20
29.71885882295027
 10
42.62210601735842
 20
29.80648719828361
 10
42.40054446209206
 20
29.87985830655026
 10
42.16563058095835
 20
29.93797992935026
 10
41.92054118129179
 20
29.98006607141696
 10
41.66859067669202
 20
30.00554758995026
 10
41.41318626562497
 20
30.01407989101693
  0
LINE
  5
2F9F
330
2F44
100
AcDbEntity
  8
02___PRT_ALL_AXES
  6
Continuous
 62
     7
100
AcDbLine
 10
43.15921761275831
 20
27.98272772895024
 30
0.0
 11
42.98023344755846
 21
27.86655554935027
 31
0.0
  0
LINE
  5
2FA0
330
2F44
100
AcDbEntity
  8
0
  6
Continuous
 62
     7
100
AcDbLine
 10
42.98388822782499
 20
27.86866520768359
 30
0.0
 11
43.0134082770919
 21
27.88626525815022
 31
0.0
  0
LWPOLYLINE
  5
2FA1
330
2F44
100
AcDbEntity
  8
02___PRT_ALL_AXES
  6
Continuous
 62
     7
100
AcDbPolyline
 90
        9
 70
     0
 43
0.0
 10
42.98023344755846
 20
27.86655554935027
 10
42.80901453729165
 20
27.77486596028359
 10
42.39429650742521
 20
27.61138776188358
 10
41.928421784492
 20
27.50450175335027
 10
41.43819929842493
 20
27.46540149768362
 10
40.95061893615866
 20
27.49683860835029
 10
40.48882221582515
 20
27.59439606895029
 10
40.08916822289164
 20
27.74109663588359
 10
39.8460619485586
 20
27.86641231781692
  0
LINE
  5
2FA2
330
2F44
100
AcDbEntity
  8
0
  6
Continuous
 62
     7
100
AcDbLine
 10
8.842484303424953
 20
11.7782436888836
 30
0.0
 11
8.999053524291866
 21
11.86134425741693
 31
0.0
  0
LINE
  5
2FA3
330
2F44
100
AcDbEntity
  8
0
  6
Continuous
 62
     7
100
AcDbLine
 10
42.82731900695853
 20
27.78556463915021
 30
0.0
 11
42.98388822782499
 21
27.86866520768359
 31
0.0
  0
LINE
  5
2FA4
330
2F44
100
AcDbEntity
  8
0
  6
Continuous
 62
     7
100
AcDbLine
 10
42.62210601735842
 20
27.69793626375025
 30
0.0
 11
42.82731900695853
 21
27.78556463915021
 31
0.0
  0
LWPOLYLINE
  5
2FA5
330
2F44
100
AcDbEntity
  8
0
  6
Continuous
 62
     7
100
AcDbPolyline
 90
        7
 70
     0
 43
0.0
 10
8.999053524291866
 20
11.86134425741693
 10
9.20426651389198
 20
11.94897263281694
 10
9.42582806922519
 20
12.0223437410836
 10
9.660741950292047
 20
12.0804653638836
 10
9.905831350024982
 20
12.12255150595024
 10
10.15778185455838
 20
12.14803302441692
 10
10.41318626562497
 20
12.1565653254836
  0
LINE
  5
2FA6
330
2F44
100
AcDbEntity
  8
02___PRT_ALL_AXES
  6
Continuous
 62
     7
100
AcDbLine
 10
63.96318626562515
 20
17.3234544482836
 30
0.0
 11
62.91318626562542
 21
17.3234544482836
 31
0.0
  0
LINE
  5
2FA7
330
2F44
100
AcDbEntity
  8
0
  6
Continuous
 62
     7
100
AcDbLine
 10
63.96318626562515
 20
17.34845444828357
 30
0.0
 11
64.54464883915854
 21
17.34845444828357
 31
0.0
  0
LINE
  5
2FA8
330
2F44
100
AcDbEntity
  8
DEFAULT_1
  6
CENTER
 62
     7
100
AcDbLine
 10
-0.0000000000004547
 20
19.8234544482836
 30
0.0
 11
76.70446733482505
 21
19.8234544482836
 31
0.0
  0
LINE
  5
2FA9
330
2F44
100
AcDbEntity
  8
DEFAULT_1
  6
CENTER
 62
     7
100
AcDbLine
 10
78.11318626562524
 20
19.8234544482836
 30
0.0
 11
78.32265226969184
 21
19.8234544482836
 31
0.0
  0
LWPOLYLINE
  5
2FAA
330
2F44
100
AcDbEntity
  8
0
  6
Continuous
 62
     7
100
AcDbPolyline
 90
        3
 70
     0
 43
0.0
 10
9.42582806922519
 20
27.62456515548361
 10
9.20426651389198
 20
27.69793626375025
 10
8.999053524291866
 20
27.78556463915021
  0
LWPOLYLINE
  5
2FAB
330
2F44
100
AcDbEntity
  8
0
  6
Continuous
 62
     7
100
AcDbPolyline
 90
        7
 70
     0
 43
0.0
 10
42.82731900695853
 20
11.86134425741693
 10
42.62210601735842
 20
11.94897263281694
 10
42.40054446209206
 20
12.0223437410836
 10
42.16563058095835
 20
12.0804653638836
 10
41.92054118129179
 20
12.12255150595024
 10
41.66859067669202
 20
12.14803302441692
 10
41.41318626562497
 20
12.1565653254836
  0
LINE
  5
2FAC
330
2F44
100
AcDbEntity
  8
0
  6
Continuous
 62
     7
100
AcDbLine
 10
42.98388822782499
 20
11.7782436888836
 30
0.0
 11
42.82731900695853
 21
11.86134425741693
 31
0.0
  0
LINE
  5
2FAD
330
2F44
100
AcDbEntity
  8
0
  6
Continuous
 62
     7
100
AcDbLine
 10
43.0134082770919
 20
11.76064363841692
 30
0.0
 11
42.98388822782499
 21
11.7782436888836
 31
0.0
  0
LWPOLYLINE
  5
2FAE
330
2F44
100
AcDbEntity
  8
02___PRT_ALL_AXES
  6
Continuous
 62
     7
100
AcDbPolyline
 90
        4
 70
     0
 43
0.0
 10
42.97853385902499
 20
11.78138856748359
 10
43.2490280533584
 20
11.59573806175028
 10
43.46120142175869
 20
11.39296609455027
 10
43.61319140775822
 20
11.17665563381689
  0
LINE
  5
2FAF
330
2F44
100
AcDbEntity
  8
0
  6
Continuous
 62
     7
100
AcDbLine
 10
43.91318702589205
 20
8.523455208683571
 30
0.0
 11
44.11318703935831
 21
8.323455222150244
 31
0.0
  0
LWPOLYLINE
  5
2FB0
330
2F44
100
AcDbEntity
  8
0
  6
Continuous
 62
     7
100
AcDbPolyline
 90
       12
 70
     0
 43
0.0
 10
39.50793037729182
 20
10.26376308555024
 10
39.39311083049188
 20
10.39489671995028
 10
39.30560933855851
 20
10.53278929801695
 10
39.24660920902488
 20
10.67557605908359
 10
39.21690831742535
 20
10.82132605728361
 10
39.21690831742535
 20
10.96806827381692
 10
39.24660920902488
 20
11.11381827195026
 10
39.30560933855851
 20
11.25660503308359
 10
39.39311083049188
 20
11.39449761108358
 10
39.50793037729182
 20
11.5256312455503
 10
39.64851524155847
 20
11.64823257888361
 10
39.8129642541585
 20
11.76064363841692
  0
LWPOLYLINE
  5
2FB1
330
2F44
100
AcDbEntity
  8
02___PRT_ALL_AXES
  6
Continuous
 62
     7
100
AcDbPolyline
 90
        6
 70
     0
 43
0.0
 10
39.11318626562525
 20
28.8341269354836
 10
39.16044855149176
 20
29.06949238961693
 10
39.29227063082499
 20
29.27403493368359
 10
39.49641674062514
 20
29.44784101315025
 10
39.76867322069166
 20
29.59390772641695
 10
39.78672640802507
 20
29.60022301515028
  0
LINE
  5
2FB2
330
2F44
100
AcDbEntity
  8
02___PRT_ALL_AXES
  6
Continuous
 62
     7
100
AcDbLine
 10
43.61319140775822
 20
28.47025326275025
 30
0.0
 11
43.43241391342507
 21
28.22182367648361
 31
0.0
  0
LINE
  5
2FB3
330
2F44
100
AcDbEntity
  8
02___PRT_ALL_AXES
  6
Continuous
 62
     7
100
AcDbLine
 10
43.43241391342507
 20
28.22182367648361
 30
0.0
 11
43.15921761275831
 21
27.98272772895024
 31
0.0
  0
LINE
  5
2FB4
330
2F44
100
AcDbEntity
  8
0
  6
Continuous
 62
     7
100
AcDbLine
 10
63.96318626562515
 20
22.29845444828356
 30
0.0
 11
64.54464883915854
 21
22.29845444828356
 31
0.0
  0
LINE
  5
2FB5
330
2F44
100
AcDbEntity
  8
02___PRT_ALL_AXES
  6
Continuous
 62
     7
100
AcDbLine
 10
63.96318626562515
 20
22.3234544482836
 30
0.0
 11
62.91318626562542
 21
22.3234544482836
 31
0.0
  0
LINE
  5
2FB6
330
2F44
100
AcDbEntity
  8
02___PRT_ALL_AXES
  6
Continuous
 62
     7
100
AcDbLine
 10
62.71318626562515
 20
24.32345444828361
 30
0.0
 11
59.61318626562523
 21
24.32345444828361
 31
0.0
  0
LINE
  5
2FB7
330
2F44
100
AcDbEntity
  8
02___PRT_ALL_AXES
  6
Continuous
 62
     7
100
AcDbLine
 10
64.84464883915871
 20
24.32345444828361
 30
0.0
 11
72.54464883915851
 21
24.32345444828361
 31
0.0
  0
LWPOLYLINE
  5
2FB8
330
2F44
100
AcDbEntity
  8
0
  6
Continuous
 62
     7
100
AcDbPolyline
 90
        6
 70
     0
 43
0.0
 10
12.04259319489165
 20
29.59820850961688
 10
12.07146388182491
 20
29.58788928708356
 10
12.3382100314252
 20
29.44227035141694
 10
12.53790027635841
 20
29.26977614608359
 10
12.66688022749167
 20
29.06718919615025
 10
12.71318626562515
 20
28.8341269354836
  0
LINE
  5
2FB9
330
2F44
100
AcDbEntity
  8
0
  6
Continuous
 62
     7
100
AcDbLine
 10
40.16318626562497
 20
28.92428466195026
 30
0.0
 11
40.16318626562497
 21
28.58013880015028
 31
0.0
  0
LINE
  5
2FBA
330
2F44
100
AcDbEntity
  8
0
  6
Continuous
 62
     7
100
AcDbLine
 10
40.16318626562497
 20
11.06677009641692
 30
0.0
 11
40.16318626562497
 21
10.72262423461694
 31
0.0
  0
LINE
  5
2FBB
330
2F44
100
AcDbEntity
  8
0
  6
Continuous
 62
     7
100
AcDbLine
 10
41.11318626562524
 20
29.46918227648359
 30
0.0
 11
41.11318626562524
 21
28.6785390486836
 31
0.0
  0
LINE
  5
2FBC
330
2F44
100
AcDbEntity
  8
0
  6
Continuous
 62
     7
100
AcDbLine
 10
41.11318626562524
 20
28.58013880015028
 30
0.0
 11
41.11318626562524
 21
28.03524118561695
 31
0.0
  0
LINE
  5
2FBD
330
2F44
100
AcDbEntity
  8
0
  6
Continuous
 62
     7
100
AcDbLine
 10
41.11318626562524
 20
11.61166771095025
 30
0.0
 11
41.11318626562524
 21
11.06677009641692
 31
0.0
  0
LINE
  5
2FBE
330
2F44
100
AcDbEntity
  8
0
  6
Continuous
 62
     7
100
AcDbLine
 10
41.11318626562524
 20
10.1777266200836
 30
0.0
 11
41.11318626562524
 21
10.96836984788359
 31
0.0
  0
LINE
  5
2FBF
330
2F44
100
AcDbEntity
  8
0
  6
Continuous
 62
     7
100
AcDbLine
 10
41.71318626562515
 20
10.1777266200836
 30
0.0
 11
41.71318626562515
 21
10.96836984788359
 31
0.0
  0
LINE
  5
2FC0
330
2F44
100
AcDbEntity
  8
0
  6
Continuous
 62
     7
100
AcDbLine
 10
41.71318626562515
 20
11.06677009641692
 30
0.0
 11
41.71318626562515
 21
11.61166771095025
 31
0.0
  0
LINE
  5
2FC1
330
2F44
100
AcDbEntity
  8
0
  6
Continuous
 62
     7
100
AcDbLine
 10
41.71318626562515
 20
28.03524118561695
 30
0.0
 11
41.71318626562515
 21
28.58013880015028
 31
0.0
  0
LINE
  5
2FC2
330
2F44
100
AcDbEntity
  8
0
  6
Continuous
 62
     7
100
AcDbLine
 10
41.71318626562515
 20
28.6785390486836
 30
0.0
 11
41.71318626562515
 21
29.46918227648359
 31
0.0
  0
LWPOLYLINE
  5
2FC3
330
2F44
100
AcDbEntity
  8
02___PRT_ALL_AXES
  6
Continuous
 62
     7
100
AcDbPolyline
 90
        4
 70
     0
 43
0.0
 10
39.11318626562525
 20
10.8127819610836
 10
39.16499459789202
 20
11.07328668095027
 10
39.30931667415871
 20
11.32446876541689
 10
39.53384360609152
 20
11.55951985668361
  0
LWPOLYLINE
  5
2FC4
330
2F44
100
AcDbEntity
  8
0
  6
Continuous
 62
     7
100
AcDbPolyline
 90
        5
 70
     0
 43
0.0
 10
41.41318626562497
 20
27.49034357108354
 10
41.66859067669202
 20
27.49887587215023
 10
41.92054118129179
 20
27.5243573906169
 10
42.16563058095835
 20
27.56644353268359
 10
42.40054446209206
 20
27.62456515548361
  0
LWPOLYLINE
  5
2FC5
330
2F44
100
AcDbEntity
  8
0
  6
Continuous
 62
     7
100
AcDbPolyline
 90
        6
 70
     0
 43
0.0
 10
10.41318626562497
 20
27.49034357108354
 10
10.66859067669202
 20
27.49887587215023
 10
10.92054118129181
 20
27.5243573906169
 10
11.16563058095835
 20
27.56644353268359
 10
11.40054446209205
 20
27.62456515548361
 10
11.62210601735842
 20
27.69793626375025
  0
LINE
  5
2FC6
330
2F44
100
AcDbEntity
  8
0
  6
Continuous
 62
     7
100
AcDbLine
 10
75.81325582075852
 20
26.09185132341691
 30
0.0
 11
76.26410046122508
 21
26.09185132341691
 31
0.0
  0
LINE
  5
2FC7
330
2F44
100
AcDbEntity
  8
02___PRT_ALL_AXES
  6
Continuous
 62
     7
100
AcDbLine
 10
59.21318626562515
 20
26.82345444828361
 30
0.0
 11
49.41318626562497
 21
26.82345444828361
 31
0.0
  0
LINE
  5
2FC8
330
2F44
100
AcDbEntity
  8
0
  6
Continuous
 62
     7
100
AcDbLine
 10
10.11318626562524
 20
28.03524118561695
 30
0.0
 11
10.71318626562515
 21
28.03524118561695
 31
0.0
  0
LINE
  5
2FC9
330
2F44
100
AcDbEntity
  8
0
  6
Continuous
 62
     7
100
AcDbLine
 10
41.11318626562524
 20
28.03524118561695
 30
0.0
 11
41.71318626562515
 21
28.03524118561695
 31
0.0
  0
LINE
  5
2FCA
330
2F44
100
AcDbEntity
  8
0
  6
Continuous
 62
     7
100
AcDbLine
 10
9.163186265624972
 20
28.58013880015028
 30
0.0
 11
10.11318626562524
 21
28.58013880015028
 31
0.0
  0
LINE
  5
2FCB
330
2F44
100
AcDbEntity
  8
0
  6
Continuous
 62
     7
100
AcDbLine
 10
10.71318626562515
 20
28.58013880015028
 30
0.0
 11
11.66318626562497
 21
28.58013880015028
 31
0.0
  0
LINE
  5
2FCC
330
2F44
100
AcDbEntity
  8
0
  6
Continuous
 62
     7
100
AcDbLine
 10
40.16318626562497
 20
28.58013880015028
 30
0.0
 11
41.11318626562524
 21
28.58013880015028
 31
0.0
  0
LINE
  5
2FCD
330
2F44
100
AcDbEntity
  8
0
  6
Continuous
 62
     7
100
AcDbLine
 10
41.71318626562515
 20
28.58013880015028
 30
0.0
 11
42.66318626562497
 21
28.58013880015028
 31
0.0
  0
LINE
  5
2FCE
330
2F44
100
AcDbEntity
  8
0
  6
Continuous
 62
     7
100
AcDbLine
 10
42.66318626562497
 20
28.6785390486836
 30
0.0
 11
41.71318626562515
 21
28.6785390486836
 31
0.0
  0
LINE
  5
2FCF
330
2F44
100
AcDbEntity
  8
0
  6
Continuous
 62
     7
100
AcDbLine
 10
41.11318626562524
 20
28.6785390486836
 30
0.0
 11
40.16318626562497
 21
28.6785390486836
 31
0.0
  0
LINE
  5
2FD0
330
2F44
100
AcDbEntity
  8
0
  6
Continuous
 62
     7
100
AcDbLine
 10
11.66318626562497
 20
28.6785390486836
 30
0.0
 11
10.71318626562515
 21
28.6785390486836
 31
0.0
  0
LINE
  5
2FD1
330
2F44
100
AcDbEntity
  8
0
  6
Continuous
 62
     7
100
AcDbLine
 10
10.11318626562524
 20
28.6785390486836
 30
0.0
 11
9.163186265624972
 21
28.6785390486836
 31
0.0
  0
LINE
  5
2FD2
330
2F44
100
AcDbEntity
  8
0
  6
Continuous
 62
     7
100
AcDbLine
 10
42.66318626562497
 20
28.92428466195026
 30
0.0
 11
41.71318626562515
 21
28.92428466195026
 31
0.0
  0
LINE
  5
2FD3
330
2F44
100
AcDbEntity
  8
0
  6
Continuous
 62
     7
100
AcDbLine
 10
41.11318626562524
 20
28.92428466195026
 30
0.0
 11
40.16318626562497
 21
28.92428466195026
 31
0.0
  0
LINE
  5
2FD4
330
2F44
100
AcDbEntity
  8
0
  6
Continuous
 62
     7
100
AcDbLine
 10
11.66318626562497
 20
28.92428466195026
 30
0.0
 11
10.71318626562515
 21
28.92428466195026
 31
0.0
  0
LINE
  5
2FD5
330
2F44
100
AcDbEntity
  8
0
  6
Continuous
 62
     7
100
AcDbLine
 10
10.11318626562524
 20
28.92428466195026
 30
0.0
 11
9.163186265624972
 21
28.92428466195026
 31
0.0
  0
LINE
  5
2FD6
330
2F44
100
AcDbEntity
  8
0
  6
Continuous
 62
     7
100
AcDbLine
 10
41.71318626562515
 20
29.22343666321694
 30
0.0
 11
41.11318626562524
 21
29.22343666321694
 31
0.0
  0
LINE
  5
2FD7
330
2F44
100
AcDbEntity
  8
0
  6
Continuous
 62
     7
100
AcDbLine
 10
10.71318626562515
 20
29.22343666321694
 30
0.0
 11
10.11318626562524
 21
29.22343666321694
 31
0.0
  0
LINE
  5
2FD8
330
2F44
100
AcDbEntity
  8
0
  6
Continuous
 62
     7
100
AcDbLine
 10
41.71318626562515
 20
29.46918227648359
 30
0.0
 11
41.11318626562524
 21
29.46918227648359
 31
0.0
  0
LINE
  5
2FD9
330
2F44
100
AcDbEntity
  8
0
  6
Continuous
 62
     7
100
AcDbLine
 10
10.71318626562515
 20
29.46918227648359
 30
0.0
 11
10.11318626562524
 21
29.46918227648359
 31
0.0
  0
LWPOLYLINE
  5
2FDA
330
2F44
100
AcDbEntity
  8
0
  6
Continuous
 62
     7
100
AcDbPolyline
 90
        5
 70
     0
 43
0.0
 10
10.41318626562497
 20
27.49034357108354
 10
10.15778185455838
 20
27.49887587215023
 10
9.905831350024982
 20
27.5243573906169
 10
9.660741950292047
 20
27.56644353268359
 10
9.42582806922519
 20
27.62456515548361
  0
LWPOLYLINE
  5
2FDB
330
2F44
100
AcDbEntity
  8
0
  6
Continuous
 62
     7
100
AcDbPolyline
 90
        5
 70
     0
 43
0.0
 10
41.41318626562497
 20
27.49034357108354
 10
41.15778185455837
 20
27.49887587215023
 10
40.90583135002497
 20
27.5243573906169
 10
40.66074195029204
 20
27.56644353268359
 10
40.42582806922519
 20
27.62456515548361
  0
LINE
  5
2FDC
330
2F44
100
AcDbEntity
  8
0
  6
Continuous
 62
     7
100
AcDbLine
 10
59.41318652195832
 20
15.43892494615028
 30
0.0
 11
59.61318652869203
 21
15.32345490395028
 31
0.0
  0
LWPOLYLINE
  5
2FDD
330
2F44
100
AcDbEntity
  8
02___PRT_ALL_AXES
  6
Continuous
 62
     7
100
AcDbPolyline
 90
        3
 70
     0
 43
0.0
 10
43.61319140775822
 20
11.17665563381689
 10
43.65074690562504
 20
11.02177461821696
 10
43.66318882502536
 20
10.85373746681693
  0
LINE
  5
2FDE
330
2F44
100
AcDbEntity
  8
0
  6
Continuous
 62
     7
100
AcDbLine
 10
42.66318626562497
 20
10.72262423461694
 30
0.0
 11
42.66318626562497
 21
11.06677009641692
 31
0.0
  0
LINE
  5
2FDF
330
2F44
100
AcDbEntity
  8
0
  6
Continuous
 62
     7
100
AcDbLine
 10
42.66318626562497
 20
28.58013880015028
 30
0.0
 11
42.66318626562497
 21
28.92428466195026
 31
0.0
  0
LINE
  5
2FE0
330
2F44
100
AcDbEntity
  8
02___PRT_ALL_AXES
  6
Continuous
 62
     7
100
AcDbLine
 10
43.61319140775822
 20
28.47025326275025
 30
0.0
 11
43.61319140775822
 21
11.17665563381689
 31
0.0
  0
LINE
  5
2FE1
330
2F44
100
AcDbEntity
  8
02___PRT_ALL_AXES
  6
Continuous
 62
     7
100
AcDbLine
 10
43.61319140775822
 20
30.8234544482836
 30
0.0
 11
43.61319140775822
 21
29.17025099088363
 31
0.0
  0
LINE
  5
2FE2
330
2F44
100
AcDbEntity
  8
02___PRT_ALL_AXES
  6
Continuous
 62
     7
100
AcDbLine
 10
43.61319140775822
 20
10.47665790568356
 30
0.0
 11
43.61319140775822
 21
8.823454448283596
 31
0.0
  0
LINE
  5
2FE3
330
2F44
100
AcDbEntity
  8
0
  6
Continuous
 62
     7
100
AcDbLine
 10
43.91318626562497
 20
31.12345444828361
 30
0.0
 11
43.91318626562497
 21
8.523454448283587
 31
0.0
  0
LINE
  5
2FE4
330
2F44
100
AcDbEntity
  8
0
  6
Continuous
 62
     7
100
AcDbLine
 10
44.11318626562525
 20
31.3234544482836
 30
0.0
 11
44.11318626562525
 21
8.323454448283596
 31
0.0
  0
LWPOLYLINE
  5
2FE5
330
2F44
100
AcDbEntity
  8
02___PRT_ALL_AXES
  6
Continuous
 62
     7
100
AcDbPolyline
 90
        3
 70
     0
 43
0.0
 10
43.66318882502536
 20
10.85373746681693
 10
43.6507402092252
 20
10.67220416781691
 10
43.61319140775822
 20
10.47665790568356
  0
LWPOLYLINE
  5
2FE6
330
2F44
100
AcDbEntity
  8
02___PRT_ALL_AXES
  6
Continuous
 62
     7
100
AcDbPolyline
 90
        3
 70
     0
 43
0.0
 10
43.66318882502536
 20
28.79317142975026
 10
43.65074688849153
 20
28.62513416755025
 10
43.61319140775822
 20
28.47025326275025
  0
LINE
  5
2FE7
330
2F44
100
AcDbEntity
  8
02___PRT_ALL_AXES
  6
Continuous
 62
     7
100
AcDbLine
 10
39.53384360609152
 20
11.55951985668361
 30
0.0
 11
39.8475691519584
 21
11.78118883388356
 31
0.0
  0
LINE
  5
2FE8
330
2F44
100
AcDbEntity
  8
0
  6
Continuous
 62
     7
100
AcDbLine
 10
39.8129642541585
 20
11.76064363841692
 30
0.0
 11
39.84248430342495
 21
11.7782436888836
 31
0.0
  0
LINE
  5
2FE9
330
2F44
100
AcDbEntity
  8
0
  6
Continuous
 62
     7
100
AcDbLine
 10
59.41318652195832
 20
24.20798395041693
 30
0.0
 11
59.61318652869203
 21
24.32345399261692
 31
0.0
  0
LINE
  5
2FEA
330
2F44
100
AcDbEntity
  8
0
  6
Continuous
 62
     7
100
AcDbLine
 10
64.54464808415831
 20
24.15025067495026
 30
0.0
 11
64.84464805395828
 21
24.32345580808358
 31
0.0
  0
LINE
  5
2FEB
330
2F44
100
AcDbEntity
  8
0
  6
Continuous
 62
     7
100
AcDbLine
 10
39.84248430342495
 20
11.7782436888836
 30
0.0
 11
39.99905352429187
 21
11.86134425741693
 31
0.0
  0
LWPOLYLINE
  5
2FEC
330
2F44
100
AcDbEntity
  8
02___PRT_ALL_AXES
  6
Continuous
 62
     7
100
AcDbPolyline
 90
        9
 70
     0
 43
0.0
 10
39.8475691519584
 20
11.78118883388356
 10
40.20635389162499
 20
11.95570138255021
 10
40.63169842215847
 20
12.09023600781694
 10
41.0822266723585
 20
12.16552035155024
 10
41.53168914069192
 20
12.17954458795026
 10
41.95729988995846
 20
12.13784087781692
 10
42.34391442109198
 20
12.05066546201692
 10
42.686284191092
 20
11.92825538915025
 10
42.97853385902499
 20
11.78138856748359
  0
LWPOLYLINE
  5
2FED
330
2F44
100
AcDbEntity
  8
0
  6
Continuous
 62
     7
100
AcDbPolyline
 90
        7
 70
     0
 43
0.0
 10
39.99905352429187
 20
11.86134425741693
 10
40.20426651389198
 20
11.94897263281694
 10
40.42582806922519
 20
12.0223437410836
 10
40.66074195029204
 20
12.0804653638836
 10
40.90583135002497
 20
12.12255150595024
 10
41.15778185455837
 20
12.14803302441692
 10
41.41318626562497
 20
12.1565653254836
  0
LINE
  5
2FEE
330
2F44
100
AcDbEntity
  8
02___PRT_ALL_AXES
  6
Continuous
 62
     7
100
AcDbLine
 10
73.77248473789177
 20
25.30813938808359
 30
0.0
 11
72.54464883915851
 21
24.79955310641691
 31
0.0
  0
LINE
  5
2FEF
330
2F44
100
AcDbEntity
  8
0
  6
Continuous
 62
     7
100
AcDbLine
 10
72.54464883915851
 20
24.79955310641691
 30
0.0
 11
76.2275286377585
 21
26.32505186761688
 31
0.0
  0
LINE
  5
2FF0
330
2F44
100
AcDbEntity
  8
0
  6
Continuous
 62
     7
100
AcDbLine
 10
76.70446733482505
 20
24.08722389368359
 30
0.0
 11
76.69626779875851
 21
24.08382753468363
 31
0.0
  0
LINE
  5
2FF1
330
2F44
100
AcDbEntity
  8
0
  6
Continuous
 62
     7
100
AcDbLine
 10
75.81325582075852
 20
26.09185132341691
 30
0.0
 11
73.77248473789177
 21
25.25476281128357
 31
0.0
  0
LINE
  5
2FF2
330
2F44
100
AcDbEntity
  8
02___PRT_ALL_AXES
  6
Continuous
 62
     7
100
AcDbLine
 10
43.61319140775822
 20
30.8234544482836
 30
0.0
 11
8.213190692692021
 21
30.8234544482836
 31
0.0
  0
LINE
  5
2FF3
330
2F44
100
AcDbEntity
  8
02___PRT_ALL_AXES
  6
Continuous
 62
     7
100
AcDbLine
 10
5.113185653358414
 20
30.8234544482836
 30
0.0
 11
7.713187204091808
 21
30.8234544482836
 31
0.0
  0
LINE
  5
2FF4
330
2F44
100
AcDbEntity
  8
02___PRT_ALL_AXES
  6
Continuous
 62
     7
100
AcDbLine
 10
49.21318626562515
 20
31.3234544482836
 30
0.0
 11
44.11318626562525
 21
31.3234544482836
 31
0.0
  0
LINE
  5
2FF5
330
2F44
100
AcDbEntity
  8
0
  6
Continuous
 62
     7
100
AcDbLine
 10
40.42582806922519
 20
27.62456515548361
 30
0.0
 11
40.20426651389198
 21
27.69793626375025
 31
0.0
  0
LWPOLYLINE
  5
2FF6
330
2F44
100
AcDbEntity
  8
02___PRT_ALL_AXES
  6
Continuous
 62
     7
100
AcDbPolyline
 90
        5
 70
     0
 43
0.0
 10
43.03860304122507
 20
29.60093602615024
 10
43.05660348575838
 20
29.59438191215026
 10
43.28751771022506
 20
29.47515727575023
 10
43.4760371846919
 20
29.33306799728359
 10
43.61319140775822
 20
29.17025099088363
  0
LINE
  5
2FF7
330
2F44
100
AcDbEntity
  8
0
  6
Continuous
 62
     7
100
AcDbLine
 10
75.81325582075852
 20
13.55505757315023
 30
0.0
 11
73.77248473789177
 21
14.39214608528363
 31
0.0
  0
LINE
  5
2FF8
330
2F44
100
AcDbEntity
  8
02___PRT_ALL_AXES
  6
Continuous
 62
     7
100
AcDbLine
 10
73.77248473789177
 20
14.33876950848361
 30
0.0
 11
72.54464883915851
 21
14.84735579015023
 31
0.0
  0
LINE
  5
2FF9
330
2F44
100
AcDbEntity
  8
0
  6
Continuous
 62
     7
100
AcDbLine
 10
76.2275286377585
 20
13.32185702895026
 30
0.0
 11
72.54464883915851
 21
14.84735579015023
 31
0.0
  0
LINE
  5
2FFA
330
2F44
100
AcDbEntity
  8
0
  6
Continuous
 62
     7
100
AcDbLine
 10
76.69626779875851
 20
15.56308136188357
 30
0.0
 11
76.70446733482505
 21
15.55968500288355
 31
0.0
  0
LINE
  5
2FFB
330
2F44
100
AcDbEntity
  8
0
  6
Continuous
 62
     7
100
AcDbLine
 10
40.20426651389198
 20
27.69793626375025
 30
0.0
 11
39.99905352429187
 21
27.78556463915021
 31
0.0
  0
LINE
  5
2FFC
330
2F44
100
AcDbEntity
  8
0
  6
Continuous
 62
     7
100
AcDbLine
 10
39.99905352429187
 20
27.78556463915021
 30
0.0
 11
39.84248430342495
 21
27.86866520768359
 31
0.0
  0
LINE
  5
2FFD
330
2F44
100
AcDbEntity
  8
0
  6
Continuous
 62
     7
100
AcDbLine
 10
64.54464808409193
 20
15.49665822161688
 30
0.0
 11
64.84464805382504
 21
15.32345308855025
 31
0.0
  0
LINE
  5
2FFE
330
2F44
100
AcDbEntity
  8
0
  6
Continuous
 62
     7
100
AcDbLine
 10
39.84248430342495
 20
27.86866520768359
 30
0.0
 11
39.8129642541585
 21
27.88626525815022
 31
0.0
  0
LINE
  5
2FFF
330
2F44
100
AcDbEntity
  8
02___PRT_ALL_AXES
  6
Continuous
 62
     7
100
AcDbLine
 10
39.8460619485586
 20
27.86641231781692
 30
0.0
 11
39.75954476629204
 21
27.91977853595023
 31
0.0
  0
LWPOLYLINE
  5
3000
330
2F44
100
AcDbEntity
  8
0
  6
Continuous
 62
     7
100
AcDbPolyline
 90
       11
 70
     0
 43
0.0
 10
39.8129642541585
 20
27.88626525815022
 10
39.64851524155847
 20
27.99867631768359
 10
39.50793037729182
 20
28.1212776510169
 10
39.39311083049188
 20
28.25241128548356
 10
39.30560933855851
 20
28.39030386348355
 10
39.24660920902488
 20
28.53309062461693
 10
39.21690831742535
 20
28.67884062275022
 10
39.21690831742535
 20
28.82558283928359
 10
39.24660920902488
 20
28.97133283748355
 10
39.30560933855851
 20
29.1141195985503
 10
39.39311083049188
 20
29.25201217661692
  0
LWPOLYLINE
  5
3001
330
2F44
100
AcDbEntity
  8
02___PRT_ALL_AXES
  6
Continuous
 62
     7
100
AcDbPolyline
 90
        5
 70
     0
 43
0.0
 10
39.75954476629204
 20
27.91977853595023
 10
39.48865860949172
 20
28.12750994781692
 10
39.28553069702502
 20
28.35471486661692
 10
39.15730953762523
 20
28.59403280715027
 10
39.11318626562525
 20
28.8341269354836
  0
LWPOLYLINE
  5
3002
330
2F44
100
AcDbEntity
  8
02___PRT_ALL_AXES
  6
Continuous
 62
     7
100
AcDbPolyline
 90
        3
 70
     0
 43
0.0
 10
43.61319140775822
 20
29.17025099088363
 10
43.65074019022495
 20
28.97470487241691
 10
43.66318882502536
 20
28.79317142975026
  0
LINE
  5
3003
330
2F44
100
AcDbEntity
  8
0
  6
Continuous
 62
     7
100
AcDbLine
 10
49.21318626562515
 20
31.3234544482836
 30
0.0
 11
49.21318626562515
 21
8.323454448283596
 31
0.0
  0
LINE
  5
3004
330
2F44
100
AcDbEntity
  8
0
  6
Continuous
 62
     7
100
AcDbLine
 10
49.41318626562497
 20
31.12345444828361
 30
0.0
 11
49.41318626562497
 21
8.523454448283587
 31
0.0
  0
LWPOLYLINE
  5
3005
330
2F44
100
AcDbEntity
  8
02___PRT_ALL_AXES
  6
Continuous
 62
     7
100
AcDbPolyline
 90
        4
 70
     0
 43
0.0
 10
43.61319140775822
 20
10.47665790568356
 10
43.43828767595868
 20
10.28035732901691
 10
43.17980454762483
 20
10.11080966541692
 10
43.06335927129157
 20
10.0628952830836
  0
LINE
  5
3006
330
2F44
100
AcDbEntity
  8
0
  6
Continuous
 62
     7
100
AcDbLine
 10
43.91318877169168
 20
9.123451952416928
 30
0.0
 11
43.61319140775822
 21
8.823454448283596
 31
0.0
  0
LINE
  5
3007
330
2F44
100
AcDbEntity
  8
0
  6
Continuous
 62
     7
100
AcDbLine
 10
43.91318877169168
 20
30.52345694415028
 30
0.0
 11
43.61319140775822
 21
30.8234544482836
 31
0.0
  0
LINE
  5
3008
330
2F44
100
AcDbEntity
  8
0
  6
Continuous
 62
     7
100
AcDbLine
 10
49.41318538062524
 20
8.523455333483582
 30
0.0
 11
49.21318536495846
 21
8.323455349150263
 31
0.0
  0
LINE
  5
3009
330
2F44
100
AcDbEntity
  8
0
  6
Continuous
 62
     7
100
AcDbLine
 10
62.91318597202508
 20
15.43892501075021
 30
0.0
 11
62.71318596429182
 21
15.32345497028359
 31
0.0
  0
LINE
  5
300A
330
2F44
100
AcDbEntity
  8
0
  6
Continuous
 62
     7
100
AcDbLine
 10
62.91318597202508
 20
24.20798388581693
 30
0.0
 11
62.71318596429182
 21
24.32345392628355
 31
0.0
  0
LINE
  5
300B
330
2F44
100
AcDbEntity
  8
0
  6
Continuous
 62
     7
100
AcDbLine
 10
49.41318538055838
 20
31.12345356315024
 30
0.0
 11
49.21318536489207
 21
31.32345354748355
 31
0.0
  0
LINE
  5
300C
330
2F44
100
AcDbEntity
  8
0
  6
Continuous
 62
     7
100
AcDbLine
 10
59.21318626562515
 20
26.82345444828361
 30
0.0
 11
59.21318626562515
 21
12.8234544482836
 31
0.0
  0
LINE
  5
300D
330
2F44
100
AcDbEntity
  8
0
  6
Continuous
 62
     7
100
AcDbLine
 10
59.41318772909153
 20
13.02345298548357
 30
0.0
 11
59.21318777209171
 21
12.82345294241691
 31
0.0
  0
LINE
  5
300E
330
2F44
100
AcDbEntity
  8
0
  6
Continuous
 62
     7
100
AcDbLine
 10
59.41318772889188
 20
26.62345591121692
 30
0.0
 11
59.21318777195846
 21
26.82345595428359
 31
0.0
  0
LINE
  5
300F
330
2F44
100
AcDbEntity
  8
0
  6
Continuous
 62
     7
100
AcDbLine
 10
59.41318626562497
 20
26.62345444835023
 30
0.0
 11
59.41318626562497
 21
13.02345444821691
 31
0.0
  0
LINE
  5
3010
330
2F44
100
AcDbEntity
  8
0
  6
Continuous
 62
     7
100
AcDbLine
 10
59.61318626562523
 20
24.32345444828361
 30
0.0
 11
59.61318626562523
 21
15.3234544482836
 31
0.0
  0
LINE
  5
3011
330
2F44
100
AcDbEntity
  8
0
  6
Continuous
 62
     7
100
AcDbLine
 10
62.71318626562515
 20
24.32345444828361
 30
0.0
 11
62.71318626562515
 21
15.3234544482836
 31
0.0
  0
LINE
  5
3012
330
2F44
100
AcDbEntity
  8
0
  6
Continuous
 62
     7
100
AcDbLine
 10
62.91318626562542
 20
24.20798439448362
 30
0.0
 11
62.91318626562542
 21
15.43892450208358
 31
0.0
  0
LINE
  5
3013
330
2F44
100
AcDbEntity
  8
0
  6
Continuous
 62
     7
100
AcDbLine
 10
63.96318626562515
 20
17.3234544482836
 30
0.0
 11
63.96318626562515
 21
22.3234544482836
 31
0.0
  0
LINE
  5
3014
330
2F44
100
AcDbEntity
  8
0
  6
Continuous
 62
     7
100
AcDbLine
 10
64.54464883915854
 20
15.49665952895026
 30
0.0
 11
64.54464883915854
 21
24.15024936755026
 31
0.0
  0
LINE
  5
3015
330
2F44
100
AcDbEntity
  8
0
  6
Continuous
 62
     7
100
AcDbLine
 10
64.84464883915871
 20
15.3234544482836
 30
0.0
 11
64.84464883915871
 21
24.32345444828361
 31
0.0
  0
LINE
  5
3016
330
2F44
100
AcDbEntity
  8
0
  6
Continuous
100
AcDbLine
 10
77.61318626562524
 20
19.8234544482836
 30
0.0
 11
76.70446733482505
 21
18.52576521148359
 31
0.0
  0
LINE
  5
3017
330
2F44
100
AcDbEntity
  8
0
  6
Continuous
 62
     7
100
AcDbLine
 10
73.77248473789177
 20
14.33876950848361
 30
0.0
 11
73.80152175915873
 21
14.38023560835023
 31
0.0
  0
LINE
  5
3018
330
2F44
100
AcDbEntity
  8
0
  6
Continuous
100
AcDbLine
 10
77.61318626562524
 20
19.8234544482836
 30
0.0
 11
76.70446733482505
 21
21.12114368508361
 31
0.0
  0
LINE
  5
3019
330
2F44
100
AcDbEntity
  8
0
  6
Continuous
 62
     7
100
AcDbLine
 10
73.80152175915873
 20
25.26667328821691
 30
0.0
 11
73.77248473789177
 21
25.30813938808359
 31
0.0
  0
LINE
  5
301A
330
2F44
100
AcDbEntity
  8
02___PRT_ALL_AXES
  6
Continuous
 62
     7
100
AcDbLine
 10
72.54464883915851
 20
14.84735579015023
 30
0.0
 11
72.54464883915851
 21
24.79955310641691
 31
0.0
  0
LINE
  5
301B
330
2F44
100
AcDbEntity
  8
0
  6
Continuous
 62
     7
100
AcDbLine
 10
73.77248473789177
 20
14.33876950848361
 30
0.0
 11
73.77248473789177
 21
14.39214608528363
 31
0.0
  0
LINE
  5
301C
330
2F44
100
AcDbEntity
  8
0
  6
Continuous
 62
     7
100
AcDbLine
 10
73.77248473789177
 20
25.25476281128357
 30
0.0
 11
73.77248473789177
 21
25.30813938808359
 31
0.0
  0
LINE
  5
301D
330
2F44
100
AcDbEntity
  8
0
  6
Continuous
 62
     7
100
AcDbLine
 10
75.81325582075852
 20
26.09185132341691
 30
0.0
 11
75.81325582075852
 21
13.55505757315023
 31
0.0
  0
LINE
  5
301E
330
2F44
100
AcDbEntity
  8
0
  6
Continuous
 62
     7
100
AcDbLine
 10
76.26410046122508
 20
26.09185132341691
 30
0.0
 11
76.26410046122508
 21
13.55505757315023
 31
0.0
  0
LINE
  5
301F
330
2F44
100
AcDbEntity
  8
0
  6
Continuous
 62
     7
100
AcDbLine
 10
76.70446733482505
 20
24.04572918255025
 30
0.0
 11
76.70446733482505
 21
15.60117971401695
 31
0.0
  0
LINE
  5
3020
330
2F44
100
AcDbEntity
  8
0
  6
Continuous
 62
     7
100
AcDbLine
 10
76.70446733482505
 20
15.55968500288355
 30
0.0
 11
76.2275286377585
 21
13.32185702895026
 31
0.0
  0
LINE
  5
3021
330
2F44
100
AcDbEntity
  8
0
  6
Continuous
100
AcDbLine
 10
76.70446733482505
 20
15.55968500288355
 30
0.0
 11
77.61318626562524
 21
19.8234544482836
 31
0.0
  0
LINE
  5
3022
330
2F44
100
AcDbEntity
  8
0
  6
Continuous
 62
     7
100
AcDbLine
 10
76.70446733482505
 20
15.60117971401695
 30
0.0
 11
76.26410046122508
 21
13.55505757315023
 31
0.0
  0
LINE
  5
3023
330
2F44
100
AcDbEntity
  8
0
  6
Continuous
 62
     7
100
AcDbLine
 10
76.70446733482505
 20
24.04572918255025
 30
0.0
 11
76.26410046122508
 21
26.09185132341691
 31
0.0
  0
LINE
  5
3024
330
2F44
100
AcDbEntity
  8
0
  6
Continuous
 62
     7
100
AcDbLine
 10
76.2275286377585
 20
26.32505186761688
 30
0.0
 11
76.70446733482505
 21
24.08722389368359
 31
0.0
  0
LINE
  5
3025
330
2F44
100
AcDbEntity
  8
0
  6
Continuous
100
AcDbLine
 10
76.70446733482505
 20
24.08722389368359
 30
0.0
 11
77.61318626562524
 21
19.8234544482836
 31
0.0
  0
ENDBLK
  5
3029
330
2F44
100
AcDbEntity
  8
0
100
AcDbBlockEnd
  0
BLOCK
  5
31C7
330
31A2
100
AcDbEntity
  8
0
100
AcDbBlockBegin
  2
A$C217E344C
 70
     0
 10
0.0
 20
0.0
 30
0.0
  3
A$C217E344C
  1

  0
LINE
  5
31A3
330
31A2
100
AcDbEntity
  8
0
  6
Continuous
 62
     7
100
AcDbLine
 10
10.61903407103273
 20
5.231602809099398
 30
0.0
 11
10.99941157729927
 21
7.938129400232696
 31
0.0
  0
LINE
  5
31A4
330
31A2
100
AcDbEntity
  8
0
  6
Continuous
 62
     7
100
AcDbLine
 10
12.00058802289914
 20
15.06186996823271
 30
0.0
 11
12.38096552916613
 21
17.76839655936601
 31
0.0
  0
LINE
  5
31A5
330
31A2
100
AcDbEntity
  8
0
  6
Continuous
 62
     7
100
AcDbLine
 10
12.38096552916613
 20
5.231602809099398
 30
0.0
 11
12.00058802289914
 21
7.938129400232696
 31
0.0
  0
LINE
  5
31A6
330
31A2
100
AcDbEntity
  8
0
  6
Continuous
 62
     7
100
AcDbLine
 10
10.99941157729927
 20
15.06186996823271
 30
0.0
 11
10.61903407103273
 21
17.76839655936601
 31
0.0
  0
CIRCLE
  5
31A7
330
31A2
100
AcDbEntity
  8
0
  6
Continuous
 62
     7
100
AcDbCircle
 10
3.056252113232403
 20
6.624999684232647
 30
0.0
 40
1.349968612533333
  0
ARC
  5
31A8
330
31A2
100
AcDbEntity
  8
0
  6
Continuous
 62
     2
100
AcDbCircle
 10
3.056252113232403
 20
6.624999684232647
 30
0.0
 40
1.25
100
AcDbArc
 50
255.0000000000056
 51
195.0000000000007
  0
CIRCLE
  5
31A9
330
31A2
100
AcDbEntity
  8
0
  6
Continuous
 62
     7
100
AcDbCircle
 10
3.056252113232403
 20
6.624999684232647
 30
0.0
 40
1.049999999999998
  0
CIRCLE
  5
31AA
330
31A2
100
AcDbEntity
  8
0
  6
Continuous
 62
     7
100
AcDbCircle
 10
11.49999980009943
 20
11.49999968423265
 30
0.0
 40
11.5
  0
CIRCLE
  5
31AB
330
31A2
100
AcDbEntity
  8
0
  6
Continuous
 62
     7
100
AcDbCircle
 10
11.49999980009943
 20
11.49999968423265
 30
0.0
 40
11.29999854813333
  0
CIRCLE
  5
31AC
330
31A2
100
AcDbEntity
  8
0
  6
Continuous
 62
     7
100
AcDbCircle
 10
11.49999980009943
 20
11.49999968423265
 30
0.0
 40
7.0
  0
CIRCLE
  5
31AD
330
31A2
100
AcDbEntity
  8
0
  6
Continuous
 62
     7
100
AcDbCircle
 10
11.49999980009943
 20
11.49999968423265
 30
0.0
 40
6.800000496733331
  0
CIRCLE
  5
31AE
330
31A2
100
AcDbEntity
  8
0
  6
Continuous
 62
     7
100
AcDbCircle
 10
11.49999980009943
 20
11.49999968423265
 30
0.0
 40
6.700000782333332
  0
CIRCLE
  5
31AF
330
31A2
100
AcDbEntity
  8
0
  6
Continuous
 62
     7
100
AcDbCircle
 10
11.49999980009943
 20
11.49999968423265
 30
0.0
 40
6.5
  0
ARC
  5
31B0
330
31A2
100
AcDbEntity
  8
0
  6
Continuous
 62
     7
100
AcDbCircle
 10
11.49999980009943
 20
11.49999968423265
 30
0.0
 40
6.329999999999999
100
AcDbArc
 50
278.0000000000137
 51
81.99999999998622
  0
ARC
  5
31B1
330
31A2
100
AcDbEntity
  8
0
  6
Continuous
 62
     7
100
AcDbCircle
 10
11.49999980009943
 20
11.49999968423265
 30
0.0
 40
6.329999999999999
100
AcDbArc
 50
98.00000000001377
 51
261.9999999999862
  0
ARC
  5
31B2
330
31A2
100
AcDbEntity
  8
0
  6
Continuous
 62
     7
100
AcDbCircle
 10
11.49999980009943
 20
11.49999968423265
 30
0.0
 40
6.299999210733331
100
AcDbArc
 50
262.0201162354896
 51
277.9798732255151
  0
ARC
  5
31B3
330
31A2
100
AcDbEntity
  8
0
  6
Continuous
 62
     7
100
AcDbCircle
 10
11.49999980009943
 20
11.49999968423265
 30
0.0
 40
6.299999210733331
100
AcDbArc
 50
82.02011623548955
 51
97.97987322551508
  0
ARC
  5
31B4
330
31A2
100
AcDbEntity
  8
0
  6
Continuous
 62
     7
100
AcDbCircle
 10
11.49999980009943
 20
11.49999968423265
 30
0.0
 40
5.484684939799999
100
AcDbArc
 50
81.99999999998622
 51
98.00000000001377
  0
ARC
  5
31B5
330
31A2
100
AcDbEntity
  8
0
  6
Continuous
 62
     7
100
AcDbCircle
 10
11.49999980009943
 20
11.49999968423265
 30
0.0
 40
5.484684939799999
100
AcDbArc
 50
261.9999999999862
 51
278.0000000000137
  0
ARC
  5
31B6
330
31A2
100
AcDbEntity
  8
0
  6
Continuous
 62
     7
100
AcDbCircle
 10
11.49999980009943
 20
11.49999968423265
 30
0.0
 40
4.263769445399998
100
AcDbArc
 50
98.00000000001377
 51
261.9999999999862
  0
ARC
  5
31B7
330
31A2
100
AcDbEntity
  8
0
  6
Continuous
 62
     7
100
AcDbCircle
 10
11.49999980009943
 20
11.49999968423265
 30
0.0
 40
4.263769445399998
100
AcDbArc
 50
278.0000000000137
 51
81.99999999998622
  0
ARC
  5
31B8
330
31A2
100
AcDbEntity
  8
0
  6
Continuous
 62
     7
100
AcDbCircle
 10
11.49999980009943
 20
11.49999968423265
 30
0.0
 40
3.596874822533333
100
AcDbArc
 50
81.99999999998622
 51
98.00000000001377
  0
ARC
  5
31B9
330
31A2
100
AcDbEntity
  8
0
  6
Continuous
 62
     7
100
AcDbCircle
 10
11.49999980009943
 20
11.49999968423265
 30
0.0
 40
3.596874822533333
100
AcDbArc
 50
261.9999999999862
 51
278.0000000000137
  0
CIRCLE
  5
31BA
330
31A2
100
AcDbEntity
  8
02___PRT_ALL_AXES
  6
Continuous
 62
     7
100
AcDbCircle
 10
11.49999980009943
 20
11.49999968423265
 30
0.0
 40
3.342773023466665
  0
CIRCLE
  5
31BB
330
31A2
100
AcDbEntity
  8
0
  6
Continuous
 62
     7
100
AcDbCircle
 10
11.49999980009943
 20
11.49999968423265
 30
0.0
 40
2.673196196599998
  0
CIRCLE
  5
31BC
330
31A2
100
AcDbEntity
  8
0
  6
Continuous
 62
     7
100
AcDbCircle
 10
11.49999980009943
 20
11.49999968423265
 30
0.0
 40
2.5
  0
CIRCLE
  5
31BD
330
31A2
100
AcDbEntity
  8
0
  6
Continuous
 62
     7
100
AcDbCircle
 10
11.49999980009943
 20
11.49999968423265
 30
0.0
 40
2.474999999999999
  0
CIRCLE
  5
31BE
330
31A2
100
AcDbEntity
  8
0
  6
Continuous
 62
     7
100
AcDbCircle
 10
11.49999980009943
 20
11.49999968423265
 30
0.0
 40
2.199972844133332
  0
CIRCLE
  5
31BF
330
31A2
100
AcDbEntity
  8
0
  6
Continuous
 62
     7
100
AcDbCircle
 10
19.9437474870324
 20
6.624999684232647
 30
0.0
 40
1.349968612533333
  0
ARC
  5
31C0
330
31A2
100
AcDbEntity
  8
0
  6
Continuous
 62
     2
100
AcDbCircle
 10
19.9437474870324
 20
6.624999684232647
 30
0.0
 40
1.25
100
AcDbArc
 50
255.0000000000056
 51
195.0000000000007
  0
CIRCLE
  5
31C1
330
31A2
100
AcDbEntity
  8
0
  6
Continuous
 62
     7
100
AcDbCircle
 10
19.9437474870324
 20
6.624999684232647
 30
0.0
 40
1.049999999999998
  0
CIRCLE
  5
31C2
330
31A2
100
AcDbEntity
  8
0
  6
Continuous
 62
     7
100
AcDbCircle
 10
11.49999980009943
 20
21.24999968423265
 30
0.0
 40
1.349968612533333
  0
ARC
  5
31C3
330
31A2
100
AcDbEntity
  8
0
  6
Continuous
 62
     2
100
AcDbCircle
 10
11.49999980009943
 20
21.24999968423265
 30
0.0
 40
1.25
100
AcDbArc
 50
255.0000000000056
 51
195.0000000000007
  0
CIRCLE
  5
31C4
330
31A2
100
AcDbEntity
  8
0
  6
Continuous
 62
     7
100
AcDbCircle
 10
11.49999980009943
 20
21.24999968423265
 30
0.0
 40
1.049999999999998
  0
ENDBLK
  5
31C8
330
31A2
100
AcDbEntity
  8
0
100
AcDbBlockEnd
  0
BLOCK
  5
35D8
330
35D7
100
AcDbEntity
  8
0
100
AcDbBlockBegin
  2
*D9
 70
     1
 10
0.0
 20
0.0
 30
0.0
  3
*D9
  1

  0
LINE
  5
3FED
330
35D7
100
AcDbEntity
  8
0
 62
     2
370
    -2
100
AcDbLine
 10
2039.082352208763
 20
-714.8338235910187
 30
0.0
 11
2039.082352208763
 21
-727.7499999999998
 31
0.0
  0
LINE
  5
3FEE
330
35D7
100
AcDbEntity
  8
0
 62
     2
370
    -2
100
AcDbLine
 10
2017.694116914646
 20
-707.351470649842
 30
0.0
 11
2017.694116914646
 21
-727.7499999999998
 31
0.0
  0
LINE
  5
3FEF
330
35D7
100
AcDbEntity
  8
0
 62
     2
370
    -2
100
AcDbLine
 10
2037.207352208764
 20
-727.0
 30
0.0
 11
2019.569116914647
 21
-727.0
 31
0.0
  0
SOLID
  5
3FF0
330
35D7
100
AcDbEntity
  8
0
 62
     2
100
AcDbTrace
 10
2037.207352208764
 20
-726.6874999999998
 30
0.0
 11
2037.207352208764
 21
-727.3125
 31
0.0
 12
2039.082352208763
 22
-727.0
 32
0.0
 13
2039.082352208763
 23
-727.0
 33
0.0
  0
SOLID
  5
3FF1
330
35D7
100
AcDbEntity
  8
0
 62
     2
100
AcDbTrace
 10
2019.569116914647
 20
-726.6874999999998
 30
0.0
 11
2019.569116914647
 21
-727.3125
 31
0.0
 12
2017.694116914646
 22
-727.0
 32
0.0
 13
2017.694116914646
 23
-727.0
 33
0.0
  0
MTEXT
  5
3FF2
330
35D7
100
AcDbEntity
  8
0
 62
     3
100
AcDbMText
 10
2028.388234561705
 20
-725.3124999999998
 30
0.0
 40
1.875
 41
0.0
 46
0.0
 71
     5
 72
     1
  1
\A1;300
 73
     1
 44
1.0
  0
POINT
  5
3FF3
330
35D7
100
AcDbEntity
  8
Defpoints
 62
     0
100
AcDbPoint
 10
2039.082352208763
 20
-714.4588235910187
 30
0.0
  0
POINT
  5
3FF4
330
35D7
100
AcDbEntity
  8
Defpoints
 62
     0
100
AcDbPoint
 10
2017.694116914646
 20
-706.9764706498422
 30
0.0
  0
POINT
  5
3FF5
330
35D7
100
AcDbEntity
  8
Defpoints
 62
     0
100
AcDbPoint
 10
2017.694116914646
 20
-727.0
 30
0.0
  0
ENDBLK
  5
35D9
330
35D7
100
AcDbEntity
  8
0
100
AcDbBlockEnd
  0
BLOCK
  5
35E5
330
35E4
100
AcDbEntity
  8
0
100
AcDbBlockBegin
  2
*D10
 70
     1
 10
0.0
 20
0.0
 30
0.0
  3
*D10
  1

  0
LINE
  5
36A6
330
35E4
100
AcDbEntity
  8
0
 62
     2
370
    -2
100
AcDbLine
 10
2039.082352208763
 20
-715.2088235910187
 30
0.0
 11
2039.082352208763
 21
-727.7499999999998
 31
0.0
  0
LINE
  5
36A7
330
35E4
100
AcDbEntity
  8
0
 62
     2
370
    -2
100
AcDbLine
 10
2075.082352208764
 20
-714.8338235910187
 30
0.0
 11
2075.082352208764
 21
-727.7499999999998
 31
0.0
  0
LINE
  5
36A8
330
35E4
100
AcDbEntity
  8
0
 62
     2
370
    -2
100
AcDbLine
 10
2040.957352208764
 20
-727.0
 30
0.0
 11
2073.207352208764
 21
-727.0
 31
0.0
  0
SOLID
  5
36A9
330
35E4
100
AcDbEntity
  8
0
 62
     2
100
AcDbTrace
 10
2040.957352208764
 20
-726.6874999999998
 30
0.0
 11
2040.957352208764
 21
-727.3125
 31
0.0
 12
2039.082352208763
 22
-727.0
 32
0.0
 13
2039.082352208763
 23
-727.0
 33
0.0
  0
SOLID
  5
36AA
330
35E4
100
AcDbEntity
  8
0
 62
     2
100
AcDbTrace
 10
2073.207352208764
 20
-726.6874999999998
 30
0.0
 11
2073.207352208764
 21
-727.3125
 31
0.0
 12
2075.082352208764
 22
-727.0
 32
0.0
 13
2075.082352208764
 23
-727.0
 33
0.0
  0
MTEXT
  5
36AB
330
35E4
100
AcDbEntity
  8
0
 62
     3
100
AcDbMText
 10
2057.130572445187
 20
-725.3124999999998
 30
0.0
 40
1.875
 41
0.0
 46
0.0
 71
     5
 72
     1
  1
\A1;36{\H1.406250;±0.1}
 73
     1
 44
1.0
  0
POINT
  5
36AC
330
35E4
100
AcDbEntity
  8
Defpoints
 62
     0
100
AcDbPoint
 10
2039.082352208763
 20
-714.8338235910187
 30
0.0
  0
POINT
  5
36AD
330
35E4
100
AcDbEntity
  8
Defpoints
 62
     0
100
AcDbPoint
 10
2075.082352208764
 20
-714.4588235910187
 30
0.0
  0
POINT
  5
36AE
330
35E4
100
AcDbEntity
  8
Defpoints
 62
     0
100
AcDbPoint
 10
2075.082352208764
 20
-727.0
 30
0.0
  0
ENDBLK
  5
35E6
330
35E4
100
AcDbEntity
  8
0
100
AcDbBlockEnd
  0
BLOCK
  5
35F2
330
35F1
100
AcDbEntity
  8
0
100
AcDbBlockBegin
  2
*D11
 70
     1
 10
0.0
 20
0.0
 30
0.0
  3
*D11
  1

  0
LINE
  5
4040
330
35F1
100
AcDbEntity
  8
0
 62
     2
370
    -2
100
AcDbLine
 10
2075.082352208764
 20
-714.8338235910187
 30
0.0
 11
2075.082352208764
 21
-727.7499999999999
 31
0.0
  0
LINE
  5
4041
330
35F1
100
AcDbEntity
  8
0
 62
     2
370
    -2
100
AcDbLine
 10
2085.082352208764
 20
-708.151470649842
 30
0.0
 11
2085.082352208764
 21
-727.7499999999999
 31
0.0
  0
LINE
  5
4042
330
35F1
100
AcDbEntity
  8
0
 62
     2
370
    -2
100
AcDbLine
 10
2076.957352208764
 20
-727.0
 30
0.0
 11
2083.207352208764
 21
-727.0
 31
0.0
  0
SOLID
  5
4043
330
35F1
100
AcDbEntity
  8
0
 62
     2
100
AcDbTrace
 10
2076.957352208764
 20
-726.6874999999999
 30
0.0
 11
2076.957352208764
 21
-727.3125
 31
0.0
 12
2075.082352208764
 22
-727.0
 32
0.0
 13
2075.082352208764
 23
-727.0
 33
0.0
  0
SOLID
  5
4044
330
35F1
100
AcDbEntity
  8
0
 62
     2
100
AcDbTrace
 10
2083.207352208764
 20
-726.6874999999999
 30
0.0
 11
2083.207352208764
 21
-727.3125
 31
0.0
 12
2085.082352208764
 22
-727.0
 32
0.0
 13
2085.082352208764
 23
-727.0
 33
0.0
  0
MTEXT
  5
4045
330
35F1
100
AcDbEntity
  8
0
 62
     3
100
AcDbMText
 10
2079.762864388031
 20
-725.3124999999999
 30
0.0
 40
1.875
 41
0.0
 46
0.0
 71
     5
 72
     1
  1
\A1;10{\H1.406250;±0.2}
 73
     1
 44
1.0
  0
POINT
  5
4046
330
35F1
100
AcDbEntity
  8
Defpoints
 62
     0
100
AcDbPoint
 10
2075.082352208764
 20
-714.4588235910187
 30
0.0
  0
POINT
  5
4047
330
35F1
100
AcDbEntity
  8
Defpoints
 62
     0
100
AcDbPoint
 10
2085.082352208764
 20
-707.776470649842
 30
0.0
  0
POINT
  5
4048
330
35F1
100
AcDbEntity
  8
Defpoints
 62
     0
100
AcDbPoint
 10
2085.082352208764
 20
-727.0
 30
0.0
  0
ENDBLK
  5
35F3
330
35F1
100
AcDbEntity
  8
0
100
AcDbBlockEnd
  0
BLOCK
  5
363E
330
363D
100
AcDbEntity
  8
0
 62
   255
100
AcDbBlockBegin
  2
*D12
 70
     1
 10
0.0
 20
0.0
 30
0.0
  3
*D12
  1

  0
LINE
  5
3680
330
363D
100
AcDbEntity
  8
0
 62
     2
370
    -2
100
AcDbLine
 10
2075.082352208764
 20
-714.8338235910187
 30
0.0
 11
2075.082352208764
 21
-720.5370695346467
 31
0.0
  0
LINE
  5
3681
330
363D
100
AcDbEntity
  8
0
 62
     2
370
    -2
100
AcDbLine
 10
2076.094116914646
 20
-711.5397059439597
 30
0.0
 11
2076.094116914646
 21
-720.5370695346467
 31
0.0
  0
LINE
  5
3682
330
363D
100
AcDbEntity
  8
0
 62
     2
370
    -2
100
AcDbLine
 10
2077.969116914646
 20
-719.7870695346469
 30
0.0
 11
2079.844116914646
 21
-719.7870695346469
 31
0.0
  0
LINE
  5
3683
330
363D
100
AcDbEntity
  8
0
 62
     2
370
    -2
100
AcDbLine
 10
2073.207352208764
 20
-719.7870695346469
 30
0.0
 11
2068.894852208764
 21
-719.7870695346469
 31
0.0
  0
LINE
  5
3684
330
363D
100
AcDbEntity
  8
0
 62
     2
370
    -2
100
AcDbLine
 10
2076.094116914646
 20
-719.7870695346469
 30
0.0
 11
2075.082352208764
 21
-719.7870695346469
 31
0.0
  0
SOLID
  5
3685
330
363D
100
AcDbEntity
  8
0
 62
     2
100
AcDbTrace
 10
2077.969116914646
 20
-719.4745695346469
 30
0.0
 11
2077.969116914646
 21
-720.0995695346469
 31
0.0
 12
2076.094116914646
 22
-719.7870695346469
 32
0.0
 13
2076.094116914646
 23
-719.7870695346469
 33
0.0
  0
SOLID
  5
3686
330
363D
100
AcDbEntity
  8
0
 62
     2
100
AcDbTrace
 10
2073.207352208764
 20
-719.4745695346469
 30
0.0
 11
2073.207352208764
 21
-720.0995695346469
 31
0.0
 12
2075.082352208764
 22
-719.7870695346469
 32
0.0
 13
2075.082352208764
 23
-719.7870695346469
 33
0.0
  0
MTEXT
  5
3687
330
363D
100
AcDbEntity
  8
0
 62
     3
100
AcDbMText
 10
2070.113602208764
 20
-718.0995695346467
 30
0.0
 40
1.875
 41
0.0
 46
0.0
 71
     5
 72
     1
  1
\A1;1
 73
     1
 44
1.0
  0
POINT
  5
3688
330
363D
100
AcDbEntity
  8
Defpoints
 62
     0
100
AcDbPoint
 10
2075.082352208764
 20
-714.4588235910187
 30
0.0
  0
POINT
  5
3689
330
363D
100
AcDbEntity
  8
Defpoints
 62
     0
100
AcDbPoint
 10
2076.094116914646
 20
-711.1647059439597
 30
0.0
  0
POINT
  5
368A
330
363D
100
AcDbEntity
  8
Defpoints
 62
     0
100
AcDbPoint
 10
2076.094116914646
 20
-719.7870695346469
 30
0.0
  0
ENDBLK
  5
363F
330
363D
100
AcDbEntity
  8
0
 62
   255
100
AcDbBlockEnd
  0
BLOCK
  5
36DE
330
36DD
100
AcDbEntity
  8
0
 62
   255
100
AcDbBlockBegin
  2
*D13
 70
     1
 10
0.0
 20
0.0
 30
0.0
  3
*D13
  1

  0
LINE
  5
3968
330
36DD
100
AcDbEntity
  8
0
 62
     2
370
    -2
100
AcDbLine
 10
2021.694116914646
 20
-707.6573530027833
 30
0.0
 11
2021.694116914646
 21
-715.1745895378272
 31
0.0
  0
LINE
  5
3969
330
36DD
100
AcDbEntity
  8
0
 62
     2
370
    -2
100
AcDbLine
 10
2017.694116914646
 20
-707.351470649842
 30
0.0
 11
2017.694116914646
 21
-715.1745895378272
 31
0.0
  0
LINE
  5
396A
330
36DD
100
AcDbEntity
  8
0
 62
     2
370
    -2
100
AcDbLine
 10
2023.569116914647
 20
-714.4245895378272
 30
0.0
 11
2025.444116914647
 21
-714.4245895378272
 31
0.0
  0
LINE
  5
396B
330
36DD
100
AcDbEntity
  8
0
 62
     2
370
    -2
100
AcDbLine
 10
2015.819116914646
 20
-714.4245895378272
 30
0.0
 11
1997.760523164646
 21
-714.4245895378272
 31
0.0
  0
LINE
  5
396C
330
36DD
100
AcDbEntity
  8
0
 62
     2
370
    -2
100
AcDbLine
 10
2021.694116914646
 20
-714.4245895378272
 30
0.0
 11
2017.694116914646
 21
-714.4245895378272
 31
0.0
  0
SOLID
  5
396D
330
36DD
100
AcDbEntity
  8
0
 62
     2
100
AcDbTrace
 10
2023.569116914647
 20
-714.1120895378272
 30
0.0
 11
2023.569116914647
 21
-714.7370895378273
 31
0.0
 12
2021.694116914646
 22
-714.4245895378272
 32
0.0
 13
2021.694116914646
 23
-714.4245895378272
 33
0.0
  0
SOLID
  5
396E
330
36DD
100
AcDbEntity
  8
0
 62
     2
100
AcDbTrace
 10
2015.819116914646
 20
-714.1120895378272
 30
0.0
 11
2015.819116914646
 21
-714.7370895378273
 31
0.0
 12
2017.694116914646
 22
-714.4245895378272
 32
0.0
 13
2017.694116914646
 23
-714.4245895378272
 33
0.0
  0
MTEXT
  5
396F
330
36DD
100
AcDbEntity
  8
0
 62
     3
100
AcDbMText
 10
2005.852320039646
 20
-712.7366900349866
 30
0.0
 40
1.875
 41
0.0
 46
0.0
 71
     5
 72
     1
  1
\A1;4{\H1.406250;±1}{\H0.5625x; twisted & tinned}
 73
     1
 44
1.0
  0
POINT
  5
3970
330
36DD
100
AcDbEntity
  8
Defpoints
 62
     0
100
AcDbPoint
 10
2021.694116914646
 20
-707.2823530027833
 30
0.0
  0
POINT
  5
3971
330
36DD
100
AcDbEntity
  8
Defpoints
 62
     0
100
AcDbPoint
 10
2017.694116914646
 20
-706.9764706498422
 30
0.0
  0
POINT
  5
3972
330
36DD
100
AcDbEntity
  8
Defpoints
 62
     0
100
AcDbPoint
 10
2017.694116914646
 20
-714.4245895378272
 30
0.0
  0
ENDBLK
  5
36DF
330
36DD
100
AcDbEntity
  8
0
 62
   255
100
AcDbBlockEnd
  0
BLOCK
  5
37FA
330
37F9
100
AcDbEntity
  8
0
 62
   255
100
AcDbBlockBegin
  2
*D14
 70
     1
 10
0.0
 20
0.0
 30
0.0
  3
*D14
  1

  0
LINE
  5
382D
330
37F9
100
AcDbEntity
  8
0
 62
     2
370
    -2
100
AcDbLine
 10
2075.082352208764
 20
-698.0838235910186
 30
0.0
 11
2075.082352208764
 21
-691.4179910295267
 31
0.0
  0
LINE
  5
382E
330
37F9
100
AcDbEntity
  8
0
 62
     2
370
    -2
100
AcDbLine
 10
2067.082352208764
 20
-697.8720588851363
 30
0.0
 11
2067.082352208764
 21
-691.4179910295267
 31
0.0
  0
LINE
  5
382F
330
37F9
100
AcDbEntity
  8
0
 62
     2
370
    -2
100
AcDbLine
 10
2073.207352208764
 20
-692.1679910295267
 30
0.0
 11
2068.957352208764
 21
-692.1679910295267
 31
0.0
  0
SOLID
  5
3830
330
37F9
100
AcDbEntity
  8
0
 62
     2
100
AcDbTrace
 10
2073.207352208764
 20
-691.8554910295267
 30
0.0
 11
2073.207352208764
 21
-692.4804910295267
 31
0.0
 12
2075.082352208764
 22
-692.1679910295267
 32
0.0
 13
2075.082352208764
 23
-692.1679910295267
 33
0.0
  0
SOLID
  5
3831
330
37F9
100
AcDbEntity
  8
0
 62
     2
100
AcDbTrace
 10
2068.957352208764
 20
-691.8554910295267
 30
0.0
 11
2068.957352208764
 21
-692.4804910295267
 31
0.0
 12
2067.082352208764
 22
-692.1679910295267
 32
0.0
 13
2067.082352208764
 23
-692.1679910295267
 33
0.0
  0
MTEXT
  5
3832
330
37F9
100
AcDbEntity
  8
0
 62
     3
100
AcDbMText
 10
2071.082352208764
 20
-690.4804910295267
 30
0.0
 40
1.875
 41
0.0
 46
0.0
 71
     5
 72
     1
  1
\A1;8{\H1.406250;±5}
 73
     1
 44
1.0
  0
POINT
  5
3833
330
37F9
100
AcDbEntity
  8
Defpoints
 62
     0
100
AcDbPoint
 10
2075.082352208764
 20
-698.4588235910186
 30
0.0
  0
POINT
  5
3834
330
37F9
100
AcDbEntity
  8
Defpoints
 62
     0
100
AcDbPoint
 10
2067.082352208764
 20
-698.2470588851363
 30
0.0
  0
POINT
  5
3835
330
37F9
100
AcDbEntity
  8
Defpoints
 62
     0
100
AcDbPoint
 10
2067.082352208764
 20
-692.1679910295267
 30
0.0
  0
ENDBLK
  5
37FB
330
37F9
100
AcDbEntity
  8
0
 62
   255
100
AcDbBlockEnd
  0
BLOCK
  5
3843
330
383E
100
AcDbEntity
  8
0
 62
   255
100
AcDbBlockBegin
  2
_Closed
 70
     0
 10
0.0
 20
0.0
 30
0.0
  3
_Closed
  1

  0
LINE
  5
383F
330
383E
100
AcDbEntity
  8
0
  6
ByBlock
 62
     0
370
    -2
100
AcDbLine
 10
-1.0
 20
0.1666666666666666
 30
0.0
 11
0.0
 21
0.0
 31
0.0
  0
LINE
  5
3840
330
383E
100
AcDbEntity
  8
0
  6
ByBlock
 62
     0
370
    -2
100
AcDbLine
 10
0.0
 20
0.0
 30
0.0
 11
-1.0
 21
-0.1666666666666666
 31
0.0
  0
LINE
  5
3841
330
383E
100
AcDbEntity
  8
0
  6
ByBlock
 62
     0
370
    -2
100
AcDbLine
 10
-1.0
 20
0.1666666666666666
 30
0.0
 11
-1.0
 21
-0.1666666666666666
 31
0.0
  0
LINE
  5
3842
330
383E
100
AcDbEntity
  8
0
  6
ByBlock
 62
     0
370
    -2
100
AcDbLine
 10
0.0
 20
0.0
 30
0.0
 11
-1.0
 21
0.0
 31
0.0
  0
ENDBLK
  5
3844
330
383E
100
AcDbEntity
  8
0
 62
   255
100
AcDbBlockEnd
  0
BLOCK
  5
3856
330
3855
100
AcDbEntity
  8
0
 62
   255
100
AcDbBlockBegin
  2
*D16
 70
     1
 10
0.0
 20
0.0
 30
0.0
  3
*D16
  1

  0
LINE
  5
393E
330
3855
100
AcDbEntity
  8
0
 62
     2
370
    -2
100
AcDbLine
 10
1977.827869405721
 20
-706.8338235910187
 30
0.0
 11
1977.827869405721
 21
-722.0726706495611
 31
0.0
  0
LINE
  5
393F
330
3855
100
AcDbEntity
  8
0
 62
     2
370
    -2
100
AcDbLine
 10
1990.863163523367
 20
-706.8338235910187
 30
0.0
 11
1990.863163523367
 21
-722.0726706495611
 31
0.0
  0
LINE
  5
3940
330
3855
100
AcDbEntity
  8
0
 62
     2
370
    -2
100
AcDbLine
 10
1979.702869405721
 20
-721.3226706495611
 30
0.0
 11
1988.988163523367
 21
-721.3226706495611
 31
0.0
  0
SOLID
  5
3941
330
3855
100
AcDbEntity
  8
0
 62
     2
100
AcDbTrace
 10
1979.702869405721
 20
-721.0101706495611
 30
0.0
 11
1979.702869405721
 21
-721.6351706495611
 31
0.0
 12
1977.827869405721
 22
-721.3226706495611
 32
0.0
 13
1977.827869405721
 23
-721.3226706495611
 33
0.0
  0
SOLID
  5
3942
330
3855
100
AcDbEntity
  8
0
 62
     2
100
AcDbTrace
 10
1988.988163523367
 20
-721.0101706495611
 30
0.0
 11
1988.988163523367
 21
-721.6351706495611
 31
0.0
 12
1990.863163523367
 22
-721.3226706495611
 32
0.0
 13
1990.863163523367
 23
-721.3226706495611
 33
0.0
  0
MTEXT
  5
3943
330
3855
100
AcDbEntity
  8
0
 62
     3
100
AcDbMText
 10
1984.345516464544
 20
-719.6351706495611
 30
0.0
 40
1.875
 41
0.0
 46
0.0
 71
     5
 72
     1
  1
\A1;%%C13
 73
     1
 44
1.0
  0
POINT
  5
3944
330
3855
100
AcDbEntity
  8
Defpoints
 62
     0
100
AcDbPoint
 10
1977.827869405721
 20
-706.4588235910187
 30
0.0
  0
POINT
  5
3945
330
3855
100
AcDbEntity
  8
Defpoints
 62
     0
100
AcDbPoint
 10
1990.863163523367
 20
-706.4588235910187
 30
0.0
  0
POINT
  5
3946
330
3855
100
AcDbEntity
  8
Defpoints
 62
     0
100
AcDbPoint
 10
1990.863163523367
 20
-721.3226706495611
 30
0.0
  0
ENDBLK
  5
3857
330
3855
100
AcDbEntity
  8
0
 62
   255
100
AcDbBlockEnd
  0
BLOCK
  5
388C
330
3885
100
AcDbEntity
  8
0
 62
   255
100
AcDbBlockBegin
  2
A$C5BAF7941
 70
     0
 10
0.0
 20
0.0
 30
0.0
  3
A$C5BAF7941
  1

  0
LWPOLYLINE
  5
3886
330
3885
100
AcDbEntity
  8
0
 62
   255
370
    -3
100
AcDbPolyline
 90
        2
 70
     0
 43
0.0
 10
1.105882253953268
 20
3.576470495494504
 10
-0.0000000989880391
 20
1.905882260200313
  0
LWPOLYLINE
  5
3887
330
3885
100
AcDbEntity
  8
0
 62
   255
370
    -3
100
AcDbPolyline
 90
        2
 70
     0
 43
0.0
 10
-0.0000000989880391
 20
1.905882260200313
 10
2.941176371600248
 20
-0.0000000927408337
  0
LWPOLYLINE
  5
3888
330
3885
100
AcDbEntity
  8
0
 62
   255
370
    -3
100
AcDbPolyline
 90
        2
 70
     0
 43
0.0
 10
2.941176371600248
 20
-0.0000000927408337
 10
4.023529312776644
 20
1.694117554317926
  0
LWPOLYLINE
  5
3889
330
3885
100
AcDbEntity
  8
0
 62
   255
370
    -3
100
AcDbPolyline
 90
        2
 70
     0
 43
0.0
 10
4.023529312776644
 20
1.694117554317926
 10
1.105882253953268
 20
3.576470495494504
  0
ENDBLK
  5
388D
330
3885
100
AcDbEntity
  8
0
 62
   255
100
AcDbBlockEnd
  0
BLOCK
  5
3891
330
3890
100
AcDbEntity
  8
0
 62
   255
100
AcDbBlockBegin
  2
*D18
 70
     1
 10
0.0
 20
0.0
 30
0.0
  3
*D18
  1

  0
LINE
  5
3947
330
3890
100
AcDbEntity
  8
0
 62
     2
370
    -2
100
AcDbLine
 10
1990.293208656214
 20
-702.9997055381236
 30
0.0
 11
1994.871286098855
 21
-700.337141669809
 31
0.0
  0
LINE
  5
3948
330
3890
100
AcDbEntity
  8
0
 62
     2
370
    -2
100
AcDbLine
 10
1984.345516464544
 20
-697.0359193023823
 30
0.0
 11
1984.345516464545
 21
-694.2823374008636
 31
0.0
  0
ARC
  5
3949
330
3890
100
AcDbEntity
  8
0
 62
     2
370
    -2
100
AcDbCircle
 10
1984.345516464545
 20
-706.4588235910187
 30
0.0
 40
11.42648619015511
100
AcDbArc
 50
39.59423726428099
 51
80.5876154848358
  0
SOLID
  5
394A
330
3890
100
AcDbEntity
  8
0
 62
     2
100
AcDbTrace
 10
1993.406842676666
 20
-698.9974506286746
 30
0.0
 11
1992.894173152577
 21
-699.3549348368162
 31
0.0
 12
1994.222960539046
 22
-700.7142013050118
 32
0.0
 13
1994.222960539046
 23
-700.7142013050118
 33
0.0
  0
SOLID
  5
394B
330
3890
100
AcDbEntity
  8
0
 62
     2
100
AcDbTrace
 10
1986.188555506045
 20
-695.4976204776085
 30
0.0
 11
1986.239834393557
 21
-694.8747276491895
 31
0.0
 12
1984.345516464544
 22
-695.0323374008636
 32
0.0
 13
1984.345516464544
 23
-695.0323374008636
 33
0.0
  0
MTEXT
  5
394C
330
3890
100
AcDbEntity
  8
0
 62
     3
100
AcDbMText
 10
1990.88447808162
 20
-695.0913869949345
 30
0.0
 40
1.875
 41
0.0
 46
0.0
 71
     5
 72
     1
  1
\A1;6x60°
 11
0.8668177952343571
 21
-0.4986250192931042
 31
0.0
 73
     1
 44
1.0
  0
POINT
  5
394D
330
3890
100
AcDbEntity
  8
Defpoints
 62
     0
100
AcDbPoint
 10
1991.671782431107
 20
-697.6901056892391
 30
0.0
  0
POINT
  5
394E
330
3890
100
AcDbEntity
  8
Defpoints
 62
     0
100
AcDbPoint
 10
1984.345516464545
 20
-706.4588235910187
 30
0.0
  0
POINT
  5
394F
330
3890
100
AcDbEntity
  8
Defpoints
 62
     0
100
AcDbPoint
 10
1984.345516464544
 20
-715.5067278796547
 30
0.0
  0
POINT
  5
3950
330
3890
100
AcDbEntity
  8
Defpoints
 62
     0
100
AcDbPoint
 10
1984.345516464545
 20
-697.4109193023823
 30
0.0
  0
POINT
  5
3951
330
3890
100
AcDbEntity
  8
Defpoints
 62
     0
100
AcDbPoint
 10
1989.96904587631
 20
-703.1882353557246
 30
0.0
  0
ENDBLK
  5
3892
330
3890
100
AcDbEntity
  8
0
 62
   255
100
AcDbBlockEnd
  0
BLOCK
  5
38AB
330
38AA
100
AcDbEntity
  8
0
 62
   255
100
AcDbBlockBegin
  2
*D19
 70
     1
 10
0.0
 20
0.0
 30
0.0
  3
*D19
  1

  0
LINE
  5
3B7A
330
38AA
100
AcDbEntity
  8
0
 62
     2
370
    -2
100
AcDbLine
 10
1983.447664168581
 20
-699.6283155213139
 30
0.0
 11
1983.447664168581
 21
-687.4783843032299
 31
0.0
  0
LINE
  5
3B7B
330
38AA
100
AcDbEntity
  8
0
 62
     2
370
    -2
100
AcDbLine
 10
1985.243368760508
 20
-699.6283155213139
 30
0.0
 11
1985.243368760508
 21
-695.5634547348473
 31
0.0
  0
LINE
  5
3B7C
330
38AA
100
AcDbEntity
  8
0
 62
     2
370
    -2
100
AcDbLine
 10
1985.243368760508
 20
-694.6827565782434
 30
0.0
 11
1985.243368760508
 21
-687.4783843032299
 31
0.0
  0
LINE
  5
3B7D
330
38AA
100
AcDbEntity
  8
0
 62
     2
370
    -2
100
AcDbLine
 10
1981.57266416858
 20
-688.2283843032301
 30
0.0
 11
1979.69766416858
 21
-688.2283843032301
 31
0.0
  0
LINE
  5
3B7E
330
38AA
100
AcDbEntity
  8
0
 62
     2
370
    -2
100
AcDbLine
 10
1987.118368760508
 20
-688.2283843032301
 30
0.0
 11
1988.993368760509
 21
-688.2283843032301
 31
0.0
  0
MTEXT
  5
3B7F
330
38AA
100
AcDbEntity
  8
0
 62
     3
100
AcDbMText
 10
1970.258083842715
 20
-686.5946747840795
 30
0.0
 40
1.875
 41
0.0
 46
0.0
 71
     5
 72
     1
  1
\A1;6xM2x3.1 min. depth
 73
     1
 44
1.0
  0
LINE
  5
3B80
330
38AA
100
AcDbEntity
  8
0
 62
     2
370
    -2
100
AcDbLine
 10
1983.447664168581
 20
-688.2283843032301
 30
0.0
 11
1985.243368760508
 21
-688.2283843032301
 31
0.0
  0
SOLID
  5
3B81
330
38AA
100
AcDbEntity
  8
0
 62
     2
100
AcDbTrace
 10
1981.57266416858
 20
-687.9158843032301
 30
0.0
 11
1981.57266416858
 21
-688.5408843032299
 31
0.0
 12
1983.447664168581
 22
-688.2283843032301
 32
0.0
 13
1983.447664168581
 23
-688.2283843032301
 33
0.0
  0
SOLID
  5
3B82
330
38AA
100
AcDbEntity
  8
0
 62
     2
100
AcDbTrace
 10
1987.118368760508
 20
-687.9158843032301
 30
0.0
 11
1987.118368760508
 21
-688.5408843032299
 31
0.0
 12
1985.243368760508
 22
-688.2283843032301
 32
0.0
 13
1985.243368760508
 23
-688.2283843032301
 33
0.0
  0
POINT
  5
3B83
330
38AA
100
AcDbEntity
  8
Defpoints
 62
     0
100
AcDbPoint
 10
1983.447664168581
 20
-700.0033155213137
 30
0.0
  0
POINT
  5
3B84
330
38AA
100
AcDbEntity
  8
Defpoints
 62
     0
100
AcDbPoint
 10
1985.243368760508
 20
-700.0033155213138
 30
0.0
  0
POINT
  5
3B85
330
38AA
100
AcDbEntity
  8
Defpoints
 62
     0
100
AcDbPoint
 10
1985.243368760508
 20
-688.2283843032301
 30
0.0
  0
ENDBLK
  5
38AC
330
38AA
100
AcDbEntity
  8
0
 62
   255
100
AcDbBlockEnd
  0
BLOCK
  5
397D
330
397C
100
AcDbEntity
  8
0
 62
   255
100
AcDbBlockBegin
  2
*D20
 70
     1
 10
0.0
 20
0.0
 30
0.0
  3
*D20
  1

  0
LINE
  5
39EB
330
397C
100
AcDbEntity
  8
0
 62
     2
370
    -2
100
AcDbLine
 10
2112.258822796999
 20
-706.0838235910186
 30
0.0
 11
2112.258822796999
 21
-687.4224277152846
 31
0.0
  0
LINE
  5
39EC
330
397C
100
AcDbEntity
  8
0
 62
     2
370
    -2
100
AcDbLine
 10
2123.741175738175
 20
-706.0838235910186
 30
0.0
 11
2123.741175738175
 21
-687.4224277152846
 31
0.0
  0
LINE
  5
39ED
330
397C
100
AcDbEntity
  8
0
 62
     2
370
    -2
100
AcDbLine
 10
2114.133822796999
 20
-688.1724277152844
 30
0.0
 11
2121.866175738175
 21
-688.1724277152844
 31
0.0
  0
SOLID
  5
39EE
330
397C
100
AcDbEntity
  8
0
 62
     2
100
AcDbTrace
 10
2114.133822796999
 20
-687.8599277152845
 30
0.0
 11
2114.133822796999
 21
-688.4849277152844
 31
0.0
 12
2112.258822796999
 22
-688.1724277152844
 32
0.0
 13
2112.258822796999
 23
-688.1724277152844
 33
0.0
  0
SOLID
  5
39EF
330
397C
100
AcDbEntity
  8
0
 62
     2
100
AcDbTrace
 10
2121.866175738175
 20
-687.8599277152845
 30
0.0
 11
2121.866175738175
 21
-688.4849277152844
 31
0.0
 12
2123.741175738175
 22
-688.1724277152844
 32
0.0
 13
2123.741175738175
 23
-688.1724277152844
 33
0.0
  0
MTEXT
  5
39F0
330
397C
100
AcDbEntity
  8
0
 62
     3
100
AcDbMText
 10
2117.999999267587
 20
-686.4849277152845
 30
0.0
 40
1.875
 41
0.0
 46
0.0
 71
     5
 72
     1
  1
\A1;%%C11.5{\H1.406250;±0.1}
 73
     1
 44
1.0
  0
POINT
  5
39F1
330
397C
100
AcDbEntity
  8
Defpoints
 62
     0
100
AcDbPoint
 10
2112.258822796999
 20
-706.4588235910187
 30
0.0
  0
POINT
  5
39F2
330
397C
100
AcDbEntity
  8
Defpoints
 62
     0
100
AcDbPoint
 10
2123.741175738175
 20
-706.4588235910187
 30
0.0
  0
POINT
  5
39F3
330
397C
100
AcDbEntity
  8
Defpoints
 62
     0
100
AcDbPoint
 10
2123.741175738175
 20
-688.1724277152844
 30
0.0
  0
ENDBLK
  5
397E
330
397C
100
AcDbEntity
  8
0
 62
   255
100
AcDbBlockEnd
  0
BLOCK
  5
3A07
330
3A06
100
AcDbEntity
  8
0
 62
   255
100
AcDbBlockBegin
  2
*D21
 70
     1
 10
0.0
 20
0.0
 30
0.0
  3
*D21
  1

  0
LINE
  5
3A09
330
3A06
100
AcDbEntity
  8
0
 62
     2
370
    -2
100
AcDbLine
 10
2121.082973074736
 20
-711.7475022358013
 30
0.0
 11
2126.59431240068
 21
-721.2019135998198
 31
0.0
  0
LINE
  5
3A0A
330
3A06
100
AcDbEntity
  8
0
 62
     2
370
    -2
100
AcDbLine
 10
2124.114794541085
 20
-706.9850969547213
 30
0.0
 11
2135.002341066192
 21
-707.9221398933583
 31
0.0
  0
ARC
  5
3A0B
330
3A06
100
AcDbEntity
  8
0
 62
     2
370
    -2
100
AcDbCircle
 10
2117.999999267587
 20
-706.4588235910187
 30
0.0
 40
16.31519619685786
100
AcDbArc
 50
306.82781312423
 51
348.4926651906107
  0
SOLID
  5
3A0C
330
3A06
100
AcDbEntity
  8
0
 62
     2
100
AcDbTrace
 10
2127.952160829051
 20
-719.7786551458191
 30
0.0
 11
2127.606893892652
 21
-719.2576793857025
 31
0.0
 12
2126.216600080502
 22
-720.5539680749601
 32
0.0
 13
2126.216600080502
 23
-720.5539680749601
 33
0.0
  0
SOLID
  5
3A0D
330
3A06
100
AcDbEntity
  8
0
 62
     2
100
AcDbTrace
 10
2133.677951755057
 20
-709.6689543968984
 30
0.0
 11
2134.296541340261
 21
-709.7582400344699
 31
0.0
 12
2134.255103460374
 22
-707.8578284600706
 32
0.0
 13
2134.255103460374
 23
-707.8578284600706
 33
0.0
  0
MTEXT
  5
3A0E
330
3A06
100
AcDbEntity
  8
0
 62
     3
100
AcDbMText
 10
2130.358805382693
 20
-714.2837457910667
 30
0.0
 40
1.875
 41
0.0
 46
0.0
 71
     5
 72
     1
  1
\A1;55°
 11
0.5349387965637856
 21
0.844890811839547
 31
0.0
 73
     1
 44
1.0
  0
POINT
  5
3A0F
330
3A06
100
AcDbEntity
  8
Defpoints
 62
     0
100
AcDbPoint
 10
2130.22313354727
 20
-717.265331598827
 30
0.0
  0
POINT
  5
3A10
330
3A06
100
AcDbEntity
  8
Defpoints
 62
     0
100
AcDbPoint
 10
2117.999999267587
 20
-706.4588235910187
 30
0.0
  0
POINT
  5
3A11
330
3A06
100
AcDbEntity
  8
Defpoints
 62
     0
100
AcDbPoint
 10
2117.999999267587
 20
-706.4588235910187
 30
0.0
  0
POINT
  5
3A12
330
3A06
100
AcDbEntity
  8
Defpoints
 62
     0
100
AcDbPoint
 10
2120.894116914647
 20
-711.4235294733718
 30
0.0
  0
POINT
  5
3A13
330
3A06
100
AcDbEntity
  8
Defpoints
 62
     0
100
AcDbPoint
 10
2123.741175738176
 20
-706.952941238078
 30
0.0
  0
ENDBLK
  5
3A08
330
3A06
100
AcDbEntity
  8
0
 62
   255
100
AcDbBlockEnd
  0
BLOCK
  5
3A16
330
3A15
100
AcDbEntity
  8
0
 62
   255
100
AcDbBlockBegin
  2
*D22
 70
     1
 10
0.0
 20
0.0
 30
0.0
  3
*D22
  1

  0
LINE
  5
3A18
330
3A15
100
AcDbEntity
  8
0
 62
     2
370
    -2
100
AcDbLine
 10
2108.577094978951
 20
-706.4588235910187
 30
0.0
 11
2100.96063399165
 21
-706.4588235910187
 31
0.0
  0
LINE
  5
3A19
330
3A15
100
AcDbEntity
  8
0
 62
     2
370
    -2
100
AcDbLine
 10
2121.082973074736
 20
-711.7475022358012
 30
0.0
 11
2126.581303524583
 21
-721.1795975603347
 31
0.0
  0
ARC
  5
3A1A
330
3A15
100
AcDbEntity
  8
0
 62
     2
370
    -2
100
AcDbCircle
 10
2117.999999267587
 20
-706.4588235910187
 30
0.0
 40
16.28936527593744
100
AcDbArc
 50
186.5987213416659
 51
293.6408293562434
  0
SOLID
  5
3A1B
330
3A15
100
AcDbEntity
  8
0
 62
     2
100
AcDbTrace
 10
2101.506563636489
 20
-708.3487009786141
 30
0.0
 11
2102.130527673285
 21
-708.3127304242018
 31
0.0
 12
2101.71063399165
 22
-706.4588235910187
 32
0.0
 13
2101.71063399165
 23
-706.4588235910187
 33
0.0
  0
SOLID
  5
3A1C
330
3A15
100
AcDbEntity
  8
0
 62
     2
100
AcDbTrace
 10
2124.390485000689
 20
-721.1025523280413
 30
0.0
 11
2124.673647593073
 21
-721.6597272972156
 31
0.0
 12
2126.203591204403
 22
-720.5316520354756
 32
0.0
 13
2126.203591204403
 23
-720.5316520354756
 33
0.0
  0
MTEXT
  5
3A1D
330
3A15
100
AcDbEntity
  8
0
 62
     3
100
AcDbMText
 10
2110.725517835067
 20
-719.1196446317149
 30
0.0
 40
1.875
 41
0.0
 46
0.0
 71
     5
 72
     1
  1
\A1;120°
 11
0.8670687478236374
 21
-0.4981885050335363
 31
0.0
 73
     1
 44
1.0
  0
POINT
  5
3A1E
330
3A15
100
AcDbEntity
  8
Defpoints
 62
     0
100
AcDbPoint
 10
2105.536225978557
 20
-716.9468060706267
 30
0.0
  0
POINT
  5
3A1F
330
3A15
100
AcDbEntity
  8
Defpoints
 62
     0
100
AcDbPoint
 10
2117.999999267587
 20
-706.4588235910187
 30
0.0
  0
POINT
  5
3A20
330
3A15
100
AcDbEntity
  8
Defpoints
 62
     0
100
AcDbPoint
 10
2127.047903556224
 20
-706.4588235910187
 30
0.0
  0
POINT
  5
3A21
330
3A15
100
AcDbEntity
  8
Defpoints
 62
     0
100
AcDbPoint
 10
2108.952094978951
 20
-706.4588235910187
 30
0.0
  0
POINT
  5
3A22
330
3A15
100
AcDbEntity
  8
Defpoints
 62
     0
100
AcDbPoint
 10
2120.894116914646
 20
-711.4235294733718
 30
0.0
  0
ENDBLK
  5
3A17
330
3A15
100
AcDbEntity
  8
0
 62
   255
100
AcDbBlockEnd
  0
BLOCK
  5
3A25
330
3A24
100
AcDbEntity
  8
0
 62
   255
100
AcDbBlockBegin
  2
*D23
 70
     1
 10
0.0
 20
0.0
 30
0.0
  3
*D23
  1

  0
LINE
  5
3A27
330
3A24
100
AcDbEntity
  8
0
 62
     2
370
    -2
100
AcDbLine
 10
2108.577094978951
 20
-706.4588235910187
 30
0.0
 11
2105.328762824768
 21
-706.4588235910187
 31
0.0
  0
LINE
  5
3A28
330
3A24
100
AcDbEntity
  8
0
 62
     2
370
    -2
100
AcDbLine
 10
2114.490833241393
 20
-711.4719179141547
 30
0.0
 11
2110.733522311107
 21
-716.8395049574203
 31
0.0
  0
ARC
  5
3A29
330
3A24
100
AcDbEntity
  8
0
 62
     2
370
    -2
100
AcDbCircle
 10
2117.999999267587
 20
-706.4588235910187
 30
0.0
 40
11.92123644281878
100
AcDbArc
 50
189.0209290177639
 51
225.9870507836823
  0
SOLID
  5
3A2A
330
3A24
100
AcDbEntity
  8
0
 62
     2
100
AcDbTrace
 10
2105.914682837856
 20
-708.3525920583597
 30
0.0
 11
2106.537747204935
 21
-708.3034413261508
 31
0.0
 12
2106.078762824768
 22
-706.4588235910187
 32
0.0
 13
2106.078762824768
 23
-706.4588235910187
 33
0.0
  0
SOLID
  5
3A2B
330
3A24
100
AcDbEntity
  8
0
 62
     2
100
AcDbTrace
 10
2109.91565959828
 20
-714.7912475509364
 30
0.0
 11
2109.518089796904
 21
-715.2734956748659
 31
0.0
 12
2111.16361906938
 22
-716.2250810170311
 32
0.0
 13
2111.16361906938
 23
-716.2250810170311
 33
0.0
  0
MTEXT
  5
3A2C
330
3A24
100
AcDbEntity
  8
0
 62
     3
100
AcDbMText
 10
2108.922893264102
 20
-711.1848693147249
 30
0.0
 40
1.875
 41
0.0
 46
0.0
 71
     5
 72
     1
  1
\A1;55°
 11
0.4618103808040194
 21
-0.8869786762835097
 31
0.0
 73
     1
 44
1.0
  0
POINT
  5
3A2D
330
3A24
100
AcDbEntity
  8
Defpoints
 62
     0
100
AcDbPoint
 10
2106.684027365373
 20
-710.2091113444948
 30
0.0
  0
POINT
  5
3A2E
330
3A24
100
AcDbEntity
  8
Defpoints
 62
     0
100
AcDbPoint
 10
2117.999999267587
 20
-706.4588235910187
 30
0.0
  0
POINT
  5
3A2F
330
3A24
100
AcDbEntity
  8
Defpoints
 62
     0
100
AcDbPoint
 10
2127.047903556223
 20
-706.4588235910185
 30
0.0
  0
POINT
  5
3A30
330
3A24
100
AcDbEntity
  8
Defpoints
 62
     0
100
AcDbPoint
 10
2108.952094978951
 20
-706.4588235910187
 30
0.0
  0
POINT
  5
3A31
330
3A24
100
AcDbEntity
  8
Defpoints
 62
     0
100
AcDbPoint
 10
2114.705881620529
 20
-711.1647059439597
 30
0.0
  0
ENDBLK
  5
3A26
330
3A24
100
AcDbEntity
  8
0
 62
   255
100
AcDbBlockEnd
  0
BLOCK
  5
3AA5
330
3A61
100
AcDbEntity
  8
0
 62
   255
100
AcDbBlockBegin
  2
new A3-S11
 70
     0
 10
0.0
 20
0.0
 30
0.0
  3
new A3-S11
  1

  0
LINE
  5
3A62
330
3A61
100
AcDbEntity
  8
0
  6
Continuous
 62
   255
100
AcDbLine
 10
795.462730356111
 20
-277.0
 30
0.0
 11
795.462730356111
 21
0.0
 31
0.0
  0
LINE
  5
3A63
330
3A61
100
AcDbEntity
  8
0
  6
Continuous
 62
   255
100
AcDbLine
 10
412.4627639465111
 20
-277.0
 30
0.0
 11
795.462730356111
 21
-277.0
 31
0.0
  0
LINE
  5
3A64
330
3A61
100
AcDbEntity
  8
0
  6
Continuous
 62
   255
100
AcDbLine
 10
402.4627639465111
 20
0.0
 30
0.0
 11
402.4627639465111
 21
-222.0000000000001
 31
0.0
  0
LINE
  5
3A65
330
3A61
100
AcDbEntity
  8
0
  6
Continuous
 62
   255
100
AcDbLine
 10
402.4627639465111
 20
0.0
 30
0.0
 11
795.462730356111
 21
0.0
 31
0.0
  0
LINE
  5
3A66
330
3A61
100
AcDbEntity
  8
1
 62
     2
100
AcDbLine
 10
615.4627303561102
 20
-240.7736213082135
 30
0.0
 11
615.4627303561102
 21
-233.1532223398645
 31
0.0
1001
AcDbBlockRepETag
1070
     1
1071
     2034
1005
0
  0
LINE
  5
3A67
330
3A61
100
AcDbEntity
  8
1
 62
     2
100
AcDbLine
 10
755.4627303560963
 20
-240.7736213082135
 30
0.0
 11
615.4627303561102
 21
-240.7736213082135
 31
0.0
1001
AcDbBlockRepETag
1070
     1
1071
     2035
1005
0
  0
LINE
  5
3A68
330
3A61
100
AcDbEntity
  8
1
 62
     2
100
AcDbLine
 10
755.4627303560963
 20
-233.1532223398645
 30
0.0
 11
755.4627303560963
 21
-240.7736213082135
 31
0.0
1001
AcDbBlockRepETag
1070
     1
1071
     2036
1005
0
  0
LINE
  5
3A69
330
3A61
100
AcDbEntity
  8
1
 62
     2
100
AcDbLine
 10
615.4627303561102
 20
-233.1532223398645
 30
0.0
 11
755.4627303560963
 21
-233.1532223398645
 31
0.0
1001
AcDbBlockRepETag
1070
     1
1071
     2037
1005
0
  0
LINE
  5
3A6A
330
3A61
100
AcDbEntity
  8
0
  6
Continuous
 62
   255
100
AcDbLine
 10
412.4627639465111
 20
-222.0
 30
0.0
 11
412.4627639465111
 21
-277.0
 31
0.0
1001
AcDbBlockRepETag
1070
     1
1071
     1946
1005
0
  0
LINE
  5
3A6B
330
3A61
100
AcDbEntity
  8
0
  6
Continuous
 62
   255
100
AcDbLine
 10
412.4627639465111
 20
-222.0
 30
0.0
 11
402.4627639465111
 21
-222.0
 31
0.0
  0
LINE
  5
3A6C
330
3A61
100
AcDbEntity
  8
0
  6
CENTER
 62
     2
 48
0.2
370
     9
100
AcDbLine
 10
790.0016616277157
 20
-260.4561080562671
 30
0.0
 11
790.0016616277157
 21
-253.4561099688349
 31
0.0
1001
AcDbBlockRepETag
1070
     1
1071
        1
1005
0
  0
LINE
  5
3A6D
330
3A61
100
AcDbEntity
  8
0
  6
CENTER
 62
     2
 48
0.2
370
     9
100
AcDbLine
 10
775.643845024092
 20
-256.956109012551
 30
0.0
 11
784.6438425650752
 21
-256.956109012551
 31
0.0
1001
AcDbBlockRepETag
1070
     1
1071
        9
1005
0
  0
LINE
  5
3A6E
330
3A61
100
AcDbEntity
  8
0
  6
Continuous
 62
   255
100
AcDbLine
 10
784.1438427016877
 20
-253.8561098595453
 30
0.0
 11
776.1438448874794
 21
-255.4561094223869
 31
0.0
1001
AcDbBlockRepETag
1070
     1
1071
       10
1005
0
  0
LINE
  5
3A6F
330
3A61
100
AcDbEntity
  8
0
  6
Continuous
 62
   255
100
AcDbLine
 10
784.1438427016877
 20
-260.0561081655568
 30
0.0
 11
784.1438427016877
 21
-253.8561098595453
 31
0.0
1001
AcDbBlockRepETag
1070
     1
1071
       11
1005
0
  0
LINE
  5
3A70
330
3A61
100
AcDbEntity
  8
0
  6
Continuous
 62
   255
100
AcDbLine
 10
776.1438448874794
 20
-258.4561086027151
 30
0.0
 11
784.1438427016877
 21
-260.0561081655568
 31
0.0
1001
AcDbBlockRepETag
1070
     1
1071
       12
1005
0
  0
LINE
  5
3A71
330
3A61
100
AcDbEntity
  8
0
  6
Continuous
 62
   255
100
AcDbLine
 10
776.1438448874794
 20
-255.4561094223869
 30
0.0
 11
776.1438448874794
 21
-258.4561086027151
 31
0.0
1001
AcDbBlockRepETag
1070
     1
1071
       13
1005
0
  0
LINE
  5
3A72
330
3A61
100
AcDbEntity
  8
0
  6
Continuous
 62
   255
100
AcDbLine
 10
732.4627505746859
 20
-255.0000010928959
 30
0.0
 11
732.4627505746859
 21
-273.0000010928959
 31
0.0
1001
AcDbBlockRepETag
1070
     1
1071
       20
1005
0
  0
LINE
  5
3A73
330
3A61
100
AcDbEntity
  8
0
  6
Continuous
 62
   255
100
AcDbLine
 10
647.4627707932584
 20
-255.0000010928961
 30
0.0
 11
647.4627707932584
 21
-273.0000010928959
 31
0.0
1001
AcDbBlockRepETag
1070
     1
1071
       22
1005
0
  0
LINE
  5
3A74
330
3A61
100
AcDbEntity
  8
0
  6
Continuous
 62
   255
100
AcDbLine
 10
612.462780356098
 20
-233.1532223398645
 30
0.0
 11
612.462780356098
 21
-277.0
 31
0.0
1001
AcDbBlockRepETag
1070
     1
1071
       26
1005
0
  0
LINE
  5
3A75
330
3A61
100
AcDbEntity
  8
0
  6
Continuous
 62
   255
100
AcDbLine
 10
587.4627871866977
 20
-257.5000053278675
 30
0.0
 11
587.462787186698
 21
-277.0
 31
0.0
1001
AcDbBlockRepETag
1070
     1
1071
       29
1005
0
  0
LINE
  5
3A76
330
3A61
100
AcDbEntity
  8
0
  6
Continuous
 62
     2
370
     9
100
AcDbLine
 10
429.4627803560981
 20
-266.5000028688518
 30
0.0
 11
612.462780356098
 21
-266.5000028688518
 31
0.0
1001
AcDbBlockRepETag
1070
     1
1071
       30
1005
0
  0
LINE
  5
3A77
330
3A61
100
AcDbEntity
  8
0
  6
Continuous
 62
   255
100
AcDbLine
 10
429.4627803560981
 20
-271.0000016393439
 30
0.0
 11
612.462780356098
 21
-271.0000016393439
 31
0.0
1001
AcDbBlockRepETag
1070
     1
1071
       31
1005
0
  0
LINE
  5
3A78
330
3A61
100
AcDbEntity
  8
0
  6
Continuous
 62
   255
100
AcDbLine
 10
429.4627803560981
 20
-277.0
 30
0.0
 11
429.4627803560978
 21
-233.1532223398645
 31
0.0
1001
AcDbBlockRepETag
1070
     1
1071
       32
1005
0
  0
LINE
  5
3A79
330
3A61
100
AcDbEntity
  8
0
  6
Continuous
 62
     2
370
     9
100
AcDbLine
 10
612.462780356098
 20
-262.0000040983596
 30
0.0
 11
429.4627803560981
 21
-262.0000040983596
 31
0.0
1001
AcDbBlockRepETag
1070
     1
1071
       33
1005
0
  0
LINE
  5
3A7A
330
3A61
100
AcDbEntity
  8
0
  6
Continuous
 62
   255
100
AcDbLine
 10
562.4627940172972
 20
-257.5000053278675
 30
0.0
 11
562.4627940172975
 21
-277.0
 31
0.0
1001
AcDbBlockRepETag
1070
     1
1071
       34
1005
0
  0
LINE
  5
3A7B
330
3A61
100
AcDbEntity
  8
0
  6
Continuous
 62
   255
100
AcDbLine
 10
537.4628008478956
 20
-257.5000053278675
 30
0.0
 11
537.4628008478956
 21
-277.0
 31
0.0
1001
AcDbBlockRepETag
1070
     1
1071
       35
1005
0
  0
LINE
  5
3A7C
330
3A61
100
AcDbEntity
  8
0
  6
Continuous
 62
   255
100
AcDbLine
 10
436.362828470839
 20
-257.5000053278675
 30
0.0
 11
436.362828470839
 21
-277.0
 31
0.0
1001
AcDbBlockRepETag
1070
     1
1071
       36
1005
0
  0
LINE
  5
3A7D
330
3A61
100
AcDbEntity
  8
0
  6
CENTER
 62
     2
 48
0.2
370
     9
100
AcDbLine
 10
786.4016626113227
 20
-256.956109012551
 30
0.0
 11
793.5016606714325
 21
-256.956109012551
 31
0.0
1001
AcDbBlockRepETag
1070
     1
1071
       37
1005
0
  0
LINE
  5
3A7E
330
3A61
100
AcDbEntity
  8
0
  6
Continuous
 62
   255
100
AcDbLine
 10
795.4627303561112
 20
-273.0000010928959
 30
0.0
 11
612.462780356098
 21
-273.0000010928959
 31
0.0
1001
AcDbBlockRepETag
1070
     1
1071
       38
1005
0
  0
CIRCLE
  5
3A7F
330
3A61
100
AcDbEntity
  8
0
  6
Continuous
 62
   255
100
AcDbCircle
 10
790.0016616277157
 20
-256.956109012551
 30
0.0
 40
3.099999153005696
1001
AcDbBlockRepETag
1070
     1
1071
       39
1005
0
  0
CIRCLE
  5
3A80
330
3A61
100
AcDbEntity
  8
0
  6
Continuous
 62
   255
100
AcDbCircle
 10
790.0016616277157
 20
-256.956109012551
 30
0.0
 40
1.499999590164045
1001
AcDbBlockRepETag
1070
     1
1071
       40
1005
0
  0
MTEXT
  5
3A81
330
3A61
100
AcDbEntity
  8
0
 62
   255
100
AcDbMText
 10
742.4886817458279
 20
-258.0961633175244
 30
0.0
 40
3.0
 41
0.0
 46
0.0
 71
     1
 72
     5
  1
Scale: X:1
 73
     1
 44
1.0
1001
AcDbBlockRepETag
1070
     1
1071
       46
1005
0
  0
MTEXT
  5
3A82
330
3A61
100
AcDbEntity
  8
0
 62
   255
100
AcDbMText
 10
785.9761987320681
 20
-266.1776207634082
 30
0.0
 40
4.5
 41
0.0
 46
0.0
 71
     1
 72
     5
  1
{\fISOCPEUR|b0|i0|c0|p34;\W1;A3}
  7
SLDTEXTSTYLE0
 73
     1
 44
1.0
1001
AcDbBlockRepETag
1070
     1
1071
       50
1005
0
  0
TEXT
  5
3A83
330
3A61
100
AcDbEntity
  8
0
  6
Continuous
 62
   255
100
AcDbText
 10
615.9995527439949
 20
-275.600626952933
 30
0.0
 40
1.72391304347826
  1
This drawing remains our property. Without written approval it may not be copied, reproduced, communicated or made available to third parties.
100
AcDbText
1001
AcDbBlockRepETag
1070
     1
1071
       51
1005
0
  0
MTEXT
  5
3A84
330
3A61
100
AcDbEntity
  8
0
 62
   255
100
AcDbMText
 10
430.8431967639346
 20
-272.4012695934838
 30
0.0
 40
1.999999453552061
 41
0.0
 46
0.0
 71
     1
 72
     5
  1
No.
 73
     1
 44
1.0
1001
AcDbBlockRepETag
1070
     1
1071
       52
1005
0
  0
MTEXT
  5
3A85
330
3A61
100
AcDbEntity
  8
0
 62
   255
100
AcDbMText
 10
465.3543791596413
 20
-272.5568974675624
 30
0.0
 40
1.999999453552061
 41
0.0
 46
0.0
 71
     1
 72
     5
  1
Modifications
 73
     1
 44
1.0
1001
AcDbBlockRepETag
1070
     1
1071
       53
1005
0
  0
MTEXT
  5
3A86
330
3A61
100
AcDbEntity
  8
0
 62
   255
100
AcDbMText
 10
516.3394128285573
 20
-272.4090513971577
 30
0.0
 40
1.999999453552061
 41
0.0
 46
0.0
 71
     1
 72
     5
  1
Communication
 73
     1
 44
1.0
1001
AcDbBlockRepETag
1070
     1
1071
       54
1005
0
  0
MTEXT
  5
3A87
330
3A61
100
AcDbEntity
  8
0
 62
   255
100
AcDbMText
 10
546.4272744208374
 20
-272.4579818509886
 30
0.0
 40
1.999999453552061
 41
0.0
 46
0.0
 71
     1
 72
     5
  1
Drawn
 73
     1
 44
1.0
1001
AcDbBlockRepETag
1070
     1
1071
       55
1005
0
  0
MTEXT
  5
3A88
330
3A61
100
AcDbEntity
  8
0
 62
   255
100
AcDbMText
 10
594.0824088716579
 20
-272.537497781863
 30
0.0
 40
1.999999453552061
 41
0.0
 46
0.0
 71
     1
 72
     5
  1
Approved
 73
     1
 44
1.0
1001
AcDbBlockRepETag
1070
     1
1071
       56
1005
0
  0
MTEXT
  5
3A89
330
3A61
100
AcDbEntity
  8
0
 62
   255
100
AcDbMText
 10
747.2395558258272
 20
-266.23226977527
 30
0.0
 40
4.5
 41
0.0
 46
0.0
 71
     1
 72
     5
  1
{\fISOCPEUR|b0|i0|c0|p34;\W1;\C256;Drg. No.}
  7
SLDTEXTSTYLE0
 73
     1
 44
1.0
1001
AcDbBlockRepETag
1070
     1
1071
       58
1005
0
  0
MTEXT
  5
3A8A
102
{ACAD_XDICTIONARY
360
4058
102
}
330
3A61
100
AcDbEntity
  8
0
 62
   255
100
AcDbMText
 10
690.4446702144996
 20
-257.668031930731
 30
0.0
 40
4.5
 41
0.0
 46
0.0
 71
     1
 72
     5
  1
\pi-15.075;{\fISOCPEUR|b0|i0|c0|p34;\W1;Description\P\pi-21.15;Outline drawing}
  7
SLDTEXTSTYLE0
 73
     1
 44
1.0
1001
AcDbBlockRepETag
1070
     1
1071
       59
1005
0
  0
MTEXT
  5
3A8B
330
3A61
100
AcDbEntity
  8
0
 62
     1
100
AcDbMText
 10
614.8696824671969
 20
-259.2996853159084
 30
0.0
 40
5.0
 41
0.0
 46
0.0
 71
     1
 72
     5
  1
{\fISOCPEUR|b0|i0|c0|p34;\W1;Portescap}
  7
SLDTEXTSTYLE0
 73
     1
 44
1.0
1001
AcDbBlockRepETag
1070
     1
1071
       65
1005
0
  0
LINE
  5
3A8C
330
3A61
100
AcDbEntity
  8
0
  6
Continuous
 62
   255
100
AcDbLine
 10
512.4628076784954
 20
-257.5000053278675
 30
0.0
 11
512.4628076784956
 21
-277.0
 31
0.0
1001
AcDbBlockRepETag
1070
     1
1071
       66
1005
0
  0
MTEXT
  5
3A8D
330
3A61
100
AcDbEntity
  8
0
 62
   255
100
AcDbMText
 10
569.768144688197
 20
-272.4579818509886
 30
0.0
 40
1.999999453552061
 41
0.0
 46
0.0
 71
     1
 72
     5
  1
Checked
 73
     1
 44
1.0
1001
AcDbBlockRepETag
1070
     1
1071
       67
1005
0
  0
LINE
  5
3A8E
330
3A61
100
AcDbEntity
  8
0
  6
Continuous
 62
   255
100
AcDbLine
 10
773.534358534004
 20
-250.0008059763035
 30
0.0
 11
773.534358534003
 21
-264.0000010928961
 31
0.0
1001
AcDbBlockRepETag
1070
     1
1071
        5
1005
0
  0
TEXT
  5
3A8F
330
3A61
100
AcDbEntity
  8
0
  6
Continuous
 62
   255
100
AcDbText
 10
779.6181708028425
 20
-275.600626952933
 30
0.0
 40
1.72391304347826
  1
Sheet 1 of 1
100
AcDbText
1001
AcDbBlockRepETag
1070
     1
1071
       51
1005
0
  0
INSERT
  5
3A90
330
3A61
100
AcDbEntity
  8
0
 62
   255
100
AcDbBlockReference
  2
A$C08716F59
 10
429.4627803560978
 20
-257.5000053278673
 30
0.0
  0
LINE
  5
3A91
330
3A61
100
AcDbEntity
  8
0
  6
Continuous
 62
   255
100
AcDbLine
 10
647.4627707932584
 20
-269.0000021857919
 30
0.0
 11
612.462780356098
 21
-269.0000021857919
 31
0.0
1001
AcDbBlockRepETag
1070
     1
1071
       38
1005
0
  0
TEXT
  5
3A92
330
3A61
100
AcDbEntity
  8
0
  6
Continuous
 62
   255
100
AcDbText
 10
615.9995527439949
 20
-271.7908875797558
 30
0.0
 40
1.72391304347826
  1
PI/R&D/F/18 Rev 00
100
AcDbText
1001
AcDbBlockRepETag
1070
     1
1071
       51
1005
0
  0
MTEXT
  5
3A93
330
3A61
100
AcDbEntity
  8
0
  6
Continuous
 62
   255
100
AcDbMText
 10
614.3222225762046
 20
-248.3998440810558
 30
0.0
 40
2.1
 41
122.5201940634145
 46
0.0
 71
     7
 72
     1
  1
Unless & otherwise specified, all dimensions and tolerances are in mm.
  7
style1
 73
     1
 44
1.0
1001
AcDbBlockRepETag
1070
     1
1071
       64
1005
0
  0
LINE
  5
3A94
330
3A61
100
AcDbEntity
  8
0
  6
Continuous
 62
   255
100
AcDbLine
 10
612.462780356098
 20
-250.0008059763035
 30
0.0
 11
795.4627303561112
 21
-250.0008059763035
 31
0.0
1001
AcDbBlockRepETag
1070
     1
1071
        3
1005
0
  0
LINE
  5
3A95
330
3A61
100
AcDbEntity
  8
0
  6
Continuous
 62
   255
100
AcDbLine
 10
773.5343585340038
 20
-255.000001092896
 30
0.0
 11
747.7434997134061
 21
-255.0000010928961
 31
0.0
1001
AcDbBlockRepETag
1070
     1
1071
       38
1005
0
  0
LINE
  5
3A96
330
3A61
100
AcDbEntity
  8
0
  6
Continuous
 62
   255
100
AcDbLine
 10
795.4627303561112
 20
-264.0000010928959
 30
0.0
 11
732.4627505746859
 21
-264.0000010928962
 31
0.0
1001
AcDbBlockRepETag
1070
     1
1071
       38
1005
0
  0
MTEXT
  5
3A97
330
3A61
100
AcDbEntity
  8
1
 62
     4
100
AcDbMText
 10
408.137763946511
 20
-249.4153946635623
 30
0.0
 40
4.5
 41
49.18666449634293
 46
0.0
 71
     2
 72
     5
  1
{\C256;Drg. No.}
 11
-0.0000000000000002
 21
-1.0
 31
0.0
 73
     1
 44
1.0
  0
LINE
  5
3A98
330
3A61
100
AcDbEntity
  8
0
  6
Continuous
 62
   255
100
AcDbLine
 10
783.462730356111
 20
-273.0000010928959
 30
0.0
 11
783.4627303561107
 21
-264.000001092896
 31
0.0
  0
MTEXT
  5
3A99
330
3A61
100
AcDbEntity
  8
1
 62
     3
100
AcDbMText
 10
616.955855400455
 20
-235.2485951401709
 30
0.0
 40
3.5
 41
134.8361601943441
 46
0.0
 71
     1
 72
     5
  1
Technology: Description - no. x.xxx.xx.xxxx
 73
     1
 44
1.0
  0
LINE
  5
3A9A
330
3A61
100
AcDbEntity
  8
0
  6
Continuous
 62
   255
100
AcDbLine
 10
657.5563534752002
 20
-250.0008059763033
 30
0.0
 11
657.5563534752006
 21
-255.000001092896
 31
0.0
1001
AcDbBlockRepETag
1070
     1
1071
       22
1005
0
  0
LINE
  5
3A9B
330
3A61
100
AcDbEntity
  8
0
  6
Continuous
 62
   255
100
AcDbLine
 10
747.7434997134054
 20
-250.0008059763033
 30
0.0
 11
747.7434997134061
 21
-255.000001092896
 31
0.0
1001
AcDbBlockRepETag
1070
     1
1071
       22
1005
0
  0
LINE
  5
3A9C
330
3A61
100
AcDbEntity
  8
0
  6
Continuous
 62
   255
100
AcDbLine
 10
777.1060302804662
 20
-277.0
 30
0.0
 11
777.106030280466
 21
-273.0000010928959
 31
0.0
  0
MTEXT
  5
3A9D
330
3A61
100
AcDbEntity
  8
0
 62
   255
100
AcDbMText
 10
614.2184337595852
 20
-251.1665621572582
 30
0.0
 40
2.5
 41
0.0
 46
0.0
 71
     1
 72
     5
  1
Drawn:
 73
     1
 44
1.0
1001
AcDbBlockRepETag
1070
     1
1071
       46
1005
0
  0
MTEXT
  5
3A9E
330
3A61
100
AcDbEntity
  8
0
 62
   255
100
AcDbMText
 10
659.83802214341
 20
-251.1665621572539
 30
0.0
 40
2.5
 41
0.0
 46
0.0
 71
     1
 72
     5
  1
Checked:
 73
     1
 44
1.0
1001
AcDbBlockRepETag
1070
     1
1071
       46
1005
0
  0
MTEXT
  5
3A9F
330
3A61
100
AcDbEntity
  8
0
 62
   255
100
AcDbMText
 10
705.588009643413
 20
-251.1665621572539
 30
0.0
 40
2.5
 41
0.0
 46
0.0
 71
     1
 72
     5
  1
Approved:
 73
     1
 44
1.0
1001
AcDbBlockRepETag
1070
     1
1071
       46
1005
0
  0
MTEXT
  5
3AA0
330
3A61
100
AcDbEntity
  8
0
 62
   255
100
AcDbMText
 10
749.3687540007138
 20
-251.1665621572497
 30
0.0
 40
2.5
 41
0.0
 46
0.0
 71
     1
 72
     5
  1
Revision No: 00
 73
     1
 44
1.0
1001
AcDbBlockRepETag
1070
     1
1071
       46
1005
0
  0
LINE
  5
3AA1
330
3A61
100
AcDbEntity
  8
0
  6
Continuous
 62
   255
100
AcDbLine
 10
747.7434997134057
 20
-255.0000010928962
 30
0.0
 11
612.462780356098
 21
-255.0000010928959
 31
0.0
1001
AcDbBlockRepETag
1070
     1
1071
       38
1005
0
  0
LINE
  5
3AA2
330
3A61
100
AcDbEntity
  8
0
  6
Continuous
 62
   255
100
AcDbLine
 10
702.6499265943025
 20
-250.0008059762993
 30
0.0
 11
702.649926594303
 21
-255.0000010928919
 31
0.0
1001
AcDbBlockRepETag
1070
     1
1071
       22
1005
0
  0
ENDBLK
  5
3AA6
330
3A61
100
AcDbEntity
  8
0
 62
   255
100
AcDbBlockEnd
  0
BLOCK
  5
3B09
330
3B06
100
AcDbEntity
  8
0
100
AcDbBlockBegin
  2
new block
 70
     0
 10
0.0
 20
0.0
 30
0.0
  3
new block
  1

  0
HATCH
  5
3B24
330
3B06
100
AcDbEntity
  8
0
 62
     2
100
AcDbHatch
 10
0.0
 20
0.0
 30
0.0
210
0.0
220
0.0
230
1.0
  2
SOLID
 70
     1
 71
     1
 91
        1
 92
        7
 72
     0
 73
     1
 93
        3
 10
866.0228837967737
 20
194.002876772133
 10
865.6660346965169
 20
193.502876772133
 10
866.3797328970302
 20
193.502876772133
 97
        3
330
3B27
330
3B25
330
3B26
 75
     0
 76
     1
 47
0.025431757181045
 98
        1
 10
866.0765236306978
 20
193.6681745596906
450
        0
451
        0
460
0.0
461
0.0
452
        1
462
1.0
453
        2
463
0.0
 63
     5
421
      255
463
1.0
 63
     7
421
 16777215
470
LINEAR
1001
ACAD
1010
0.0
1020
0.0
1030
0.0
1001
AcDbBlockRepETag
1070
     1
1071
        0
1005
3B24
  0
LINE
  5
3B25
102
{ACAD_REACTORS
330
3B24
102
}
330
3B06
100
AcDbEntity
  8
0
 62
     2
100
AcDbLine
 10
865.6660346965169
 20
193.502876772133
 30
0.0
 11
866.3797328970302
 21
193.502876772133
 31
0.0
1001
AcDbBlockRepETag
1070
     1
1071
        1
1005
3B25
  0
LINE
  5
3B26
102
{ACAD_REACTORS
330
3B24
102
}
330
3B06
100
AcDbEntity
  8
0
 62
     2
100
AcDbLine
 10
866.0228837967737
 20
194.002876772133
 30
0.0
 11
866.3797328970302
 21
193.502876772133
 31
0.0
1001
AcDbBlockRepETag
1070
     1
1071
        2
1005
3B26
  0
LINE
  5
3B27
102
{ACAD_REACTORS
330
3B24
102
}
330
3B06
100
AcDbEntity
  8
0
 62
     2
100
AcDbLine
 10
866.0228837967737
 20
194.002876772133
 30
0.0
 11
865.6660346965169
 21
193.502876772133
 31
0.0
1001
AcDbBlockRepETag
1070
     1
1071
        3
1005
3B27
  0
LINE
  5
3B28
330
3B06
100
AcDbEntity
  8
0
 62
     2
100
AcDbLine
 10
866.0228837967737
 20
194.002876772133
 30
0.0
 11
866.0228837967737
 21
194.55272967134
 31
0.0
1001
AcDbBlockRepETag
1070
     1
1071
        4
1005
3B28
  0
TOLERANCE
  5
3B29
330
3B06
100
AcDbEntity
  8
0
 62
     2
100
AcDbFcf
  3
Standard
 10
865.4457587967735
 20
195.16022967134
 30
0.0
  1
%%v%%v%%vA%%v%%v
1001
ACAD
1000
DSTYLE
1002
{
1070
   178
1070
     3
1070
   140
1040
0.6075000000000001
1070
   147
1040
0.30375
1002
}
1001
AcDbBlockRepETag
1070
     1
1071
        5
1005
3B29
  0
ENDBLK
  5
3B10
330
3B06
100
AcDbEntity
  8
0
100
AcDbBlockEnd
  0
BLOCK
  5
3B15
330
3B11
100
AcDbEntity
  8
0
 62
   255
100
AcDbBlockBegin
  2
Datum
 70
     0
 10
0.0
 20
0.0
 30
0.0
  3
Datum
  1

  0
INSERT
  5
3B12
330
3B11
100
AcDbEntity
  8
0
100
AcDbBlockReference
  2
new block
 10
-866.0228837967737
 20
-193.502876772133
 30
0.0
  0
ENDBLK
  5
3B16
330
3B11
100
AcDbEntity
  8
0
 62
   255
100
AcDbBlockEnd
  0
ENDSEC
  0
SECTION
  2
ENTITIES
  0
LWPOLYLINE
  5
3510
330
2
100
AcDbEntity
  8
0
  6
CENTER
 62
     2
 48
0.5
370
    -3
100
AcDbPolyline
 90
        2
 70
     0
 43
0.0
 10
2037.529411032293
 20
-706.4588235910187
 10
2090.588234561705
 20
-706.4588235910187
  0
LWPOLYLINE
  5
3512
330
2
100
AcDbEntity
  8
0
  6
CENTER
 62
     2
 48
0.3
370
    -3
100
AcDbPolyline
 90
        2
 70
     0
 43
0.0
 10
1993.39342075318
 20
-706.4588235910187
 10
1975.297612175908
 20
-706.4588235910187
  0
LWPOLYLINE
  5
3519
330
2
100
AcDbEntity
  8
0
  6
CENTER
 62
     2
 48
0.3
370
    -3
100
AcDbPolyline
 90
        2
 70
     0
 43
0.0
 10
1984.345516464544
 20
-715.5067278796547
 10
1984.345516464544
 20
-697.4109193023824
  0
LWPOLYLINE
  5
3521
330
2
100
AcDbEntity
  8
0
 62
   255
370
    -3
100
AcDbPolyline
 90
        2
 70
     0
 43
0.0
 10
2117.999999267587
 20
-706.4588235910187
 10
2117.999999267587
 20
-703.9176471204305
  0
LWPOLYLINE
  5
3522
330
2
100
AcDbEntity
  8
0
 62
   255
370
    -3
100
AcDbPolyline
 90
        2
 70
     0
 43
0.0
 10
2117.999999267587
 20
-706.4588235910187
 10
2115.458822796999
 20
-706.4588235910187
  0
LWPOLYLINE
  5
3523
330
2
100
AcDbEntity
  8
0
 62
   255
370
    -3
100
AcDbPolyline
 90
        2
 70
     0
 43
0.0
 10
2117.999999267587
 20
-706.4588235910187
 10
2117.999999267587
 20
-709.0000000616067
  0
LWPOLYLINE
  5
3524
330
2
100
AcDbEntity
  8
0
 62
   255
370
    -3
100
AcDbPolyline
 90
        2
 70
     0
 43
0.0
 10
2117.999999267587
 20
-706.4588235910187
 10
2120.541175738175
 20
-706.4588235910187
  0
LWPOLYLINE
  5
3529
330
2
100
AcDbEntity
  8
0
 62
   255
370
    -3
100
AcDbPolyline
 90
        2
 70
     0
 43
0.0
 10
2117.999999267587
 20
-706.4588235910187
 10
2117.999999267587
 20
-703.9176471204305
  0
LWPOLYLINE
  5
352A
330
2
100
AcDbEntity
  8
0
 62
   255
370
    -3
100
AcDbPolyline
 90
        2
 70
     0
 43
0.0
 10
2117.999999267587
 20
-706.4588235910187
 10
2115.458822796999
 20
-706.4588235910187
  0
LWPOLYLINE
  5
352B
330
2
100
AcDbEntity
  8
0
 62
   255
370
    -3
100
AcDbPolyline
 90
        2
 70
     0
 43
0.0
 10
2117.999999267587
 20
-706.4588235910187
 10
2117.999999267587
 20
-709.0000000616067
  0
LWPOLYLINE
  5
352C
330
2
100
AcDbEntity
  8
0
 62
   255
370
    -3
100
AcDbPolyline
 90
        2
 70
     0
 43
0.0
 10
2117.999999267587
 20
-706.4588235910187
 10
2120.541175738175
 20
-706.4588235910187
  0
LWPOLYLINE
  5
3531
330
2
100
AcDbEntity
  8
0
 62
     2
370
    -3
100
AcDbPolyline
 90
        2
 70
     0
 43
0.0
 10
2030.070587502882
 20
-704.7176471204304
 10
2030.870587502882
 20
-704.8588235910187
  0
LWPOLYLINE
  5
3532
330
2
100
AcDbEntity
  8
0
 62
     2
370
    -3
100
AcDbPolyline
 90
        2
 70
     0
 43
0.0
 10
2030.870587502882
 20
-704.8588235910187
 10
2029.270587502882
 20
-706.4823530027831
  0
LWPOLYLINE
  5
3533
330
2
100
AcDbEntity
  8
0
 62
     2
370
    -3
100
AcDbPolyline
 90
        2
 70
     0
 43
0.0
 10
2029.270587502882
 20
-706.4823530027831
 10
2030.870587502882
 20
-706.7882353557246
  0
LWPOLYLINE
  5
3534
330
2
100
AcDbEntity
  8
0
 62
     2
370
    -3
100
AcDbPolyline
 90
        2
 70
     0
 43
0.0
 10
2030.870587502882
 20
-706.7882353557246
 10
2029.270587502882
 20
-708.3882353557246
  0
LWPOLYLINE
  5
3535
330
2
100
AcDbEntity
  8
0
 62
     2
370
    -3
100
AcDbPolyline
 90
        2
 70
     0
 43
0.0
 10
2029.270587502882
 20
-708.3882353557246
 10
2030.070587502882
 20
-708.5529412380775
  0
LWPOLYLINE
  5
3536
330
2
100
AcDbEntity
  8
0
 62
     2
370
    -3
100
AcDbPolyline
 90
        2
 70
     0
 43
0.0
 10
2035.152940444058
 20
-704.5294118263129
 10
2035.952940444058
 20
-705.9411765321953
  0
LWPOLYLINE
  5
3537
330
2
100
AcDbEntity
  8
0
 62
     2
370
    -3
100
AcDbPolyline
 90
        2
 70
     0
 43
0.0
 10
2035.952940444058
 20
-705.9411765321953
 10
2034.352940444058
 20
-707.5411765321953
  0
LWPOLYLINE
  5
3538
330
2
100
AcDbEntity
  8
0
 62
     2
370
    -3
100
AcDbPolyline
 90
        2
 70
     0
 43
0.0
 10
2034.352940444058
 20
-707.5411765321953
 10
2035.952940444058
 20
-710.3647059439598
  0
LWPOLYLINE
  5
3539
330
2
100
AcDbEntity
  8
0
 62
     2
370
    -3
100
AcDbPolyline
 90
        2
 70
     0
 43
0.0
 10
2035.952940444058
 20
-710.3647059439598
 10
2034.352940444058
 20
-711.9411765321951
  0
LWPOLYLINE
  5
353A
330
2
100
AcDbEntity
  8
0
 62
     2
370
    -3
100
AcDbPolyline
 90
        2
 70
     0
 43
0.0
 10
2034.352940444058
 20
-711.9411765321951
 10
2035.152940444058
 20
-713.3529412380775
  0
LWPOLYLINE
  5
353B
330
2
100
AcDbEntity
  8
0
  6
CENTER
 62
     2
 48
0.1
370
    -3
100
AcDbPolyline
 90
        2
 70
     0
 43
0.0
 10
2117.999999267587
 20
-706.4588235910187
 10
2120.894116914646
 20
-711.4235294733718
  0
LWPOLYLINE
  5
353C
330
2
100
AcDbEntity
  8
0
  6
CENTER
 62
     2
 48
0.1
370
    -3
100
AcDbPolyline
 90
        2
 70
     0
 43
0.0
 10
2117.999999267587
 20
-706.4588235910187
 10
2123.741175738176
 20
-706.9529412380775
  0
LWPOLYLINE
  5
353D
330
2
100
AcDbEntity
  8
0
  6
CENTER
 62
     2
 48
0.1
370
    -3
100
AcDbPolyline
 90
        2
 70
     0
 43
0.0
 10
2117.999999267587
 20
-706.4588235910187
 10
2114.705881620528
 20
-711.1647059439597
  0
LWPOLYLINE
  5
353E
330
2
100
AcDbEntity
  8
0
  6
CENTER
 62
     2
 48
0.1
370
    -3
100
AcDbPolyline
 90
        2
 70
     0
 43
0.0
 10
1984.345516464544
 20
-706.4588235910187
 10
1989.969045876309
 20
-703.1882353557246
  0
LWPOLYLINE
  5
353F
330
2
100
AcDbEntity
  8
0
 62
   255
370
    -3
100
AcDbPolyline
 90
        2
 70
     0
 43
0.0
 10
2071.199999267587
 20
-714.4588235910187
 10
2075.082352208764
 20
-714.4588235910187
  0
LWPOLYLINE
  5
3540
330
2
100
AcDbEntity
  8
0
 62
   255
370
    -3
100
AcDbPolyline
 90
        2
 70
     0
 43
0.0
 10
2075.082352208764
 20
-698.4588235910186
 10
2071.199999267587
 20
-698.4588235910186
  0
LWPOLYLINE
  5
3541
330
2
100
AcDbEntity
  8
0
 62
   255
370
    -3
100
AcDbPolyline
 90
        9
 70
     0
 43
0.0
 10
2075.247058091117
 20
-701.4470588851362
 10
2075.223528679352
 20
-701.4470588851362
 10
2075.176469855823
 20
-701.4470588851362
 10
2075.152940444058
 20
-701.4235294733715
 10
2075.129411032293
 20
-701.400000061607
 10
2075.105881620529
 20
-701.400000061607
 10
2075.105881620529
 20
-701.3529412380777
 10
2075.082352208764
 20
-701.3294118263127
 10
2075.082352208764
 20
-701.3058824145481
  0
LWPOLYLINE
  5
3542
330
2
100
AcDbEntity
  8
0
 62
   255
370
    -3
100
AcDbPolyline
 90
        9
 70
     0
 43
0.0
 10
2075.082352208764
 20
-711.6117647674892
 10
2075.082352208764
 20
-711.5882353557244
 10
2075.105881620529
 20
-711.5647059439598
 10
2075.105881620529
 20
-711.5176471204303
 10
2075.129411032293
 20
-711.4941177086657
 10
2075.152940444058
 20
-711.4941177086657
 10
2075.176469855823
 20
-711.4705882969009
 10
2075.223528679352
 20
-711.4470588851362
 10
2075.247058091117
 20
-711.4470588851362
  0
LWPOLYLINE
  5
3543
330
2
100
AcDbEntity
  8
0
 62
   255
370
    -3
100
AcDbPolyline
 90
        2
 70
     0
 43
0.0
 10
2075.788234561705
 20
-711.4470588851362
 10
2076.094116914646
 20
-711.1647059439597
  0
LWPOLYLINE
  5
3544
330
2
100
AcDbEntity
  8
0
 62
   255
370
    -3
100
AcDbPolyline
 90
        2
 70
     0
 43
0.0
 10
2076.094116914646
 20
-701.7529412380773
 10
2075.788234561705
 20
-701.4470588851362
  0
LWPOLYLINE
  5
3545
330
2
100
AcDbEntity
  8
0
 62
   255
370
    -3
100
AcDbPolyline
 90
        2
 70
     0
 43
0.0
 10
2075.247058091117
 20
-711.4470588851362
 10
2075.788234561705
 20
-711.4470588851362
  0
LWPOLYLINE
  5
3546
330
2
100
AcDbEntity
  8
0
 62
   255
370
    -3
100
AcDbPolyline
 90
        2
 70
     0
 43
0.0
 10
2075.788234561705
 20
-701.4470588851362
 10
2075.247058091117
 20
-701.4470588851362
  0
LWPOLYLINE
  5
3547
330
2
100
AcDbEntity
  8
0
 62
   255
370
    -3
100
AcDbPolyline
 90
        2
 70
     0
 43
0.0
 10
2067.082352208764
 20
-698.2470588851363
 10
2047.082352208764
 20
-698.2470588851363
  0
LWPOLYLINE
  5
3548
330
2
100
AcDbEntity
  8
0
 62
   255
370
    -3
100
AcDbPolyline
 90
        2
 70
     0
 43
0.0
 10
2039.082352208763
 20
-714.4588235910187
 10
2040.070587502881
 20
-714.4588235910187
  0
LWPOLYLINE
  5
3549
330
2
100
AcDbEntity
  8
0
 62
   255
370
    -3
100
AcDbPolyline
 90
        2
 70
     0
 43
0.0
 10
2040.070587502881
 20
-698.4588235910186
 10
2039.082352208763
 20
-698.4588235910186
  0
LWPOLYLINE
  5
354A
330
2
100
AcDbEntity
  8
0
 62
   255
370
    -3
100
AcDbPolyline
 90
        2
 70
     0
 43
0.0
 10
2035.129411032293
 20
-711.1647059439597
 10
2039.082352208763
 20
-711.1647059439597
  0
LWPOLYLINE
  5
354B
330
2
100
AcDbEntity
  8
0
 62
   255
370
    -3
100
AcDbPolyline
 90
        2
 70
     0
 43
0.0
 10
2039.082352208763
 20
-705.8000000616068
 10
2035.858822796999
 20
-705.8000000616068
  0
LWPOLYLINE
  5
354C
330
2
100
AcDbEntity
  8
0
 62
   255
370
    -3
100
AcDbPolyline
 90
        2
 70
     0
 43
0.0
 10
2034.729411032293
 20
-712.0823530027834
 10
2039.082352208763
 20
-712.0823530027834
  0
LWPOLYLINE
  5
354D
330
2
100
AcDbEntity
  8
0
 62
   255
370
    -3
100
AcDbPolyline
 90
        2
 70
     0
 43
0.0
 10
2034.941175738175
 20
-708.6000000616069
 10
2039.082352208763
 20
-708.6000000616069
  0
LWPOLYLINE
  5
354E
330
2
100
AcDbEntity
  8
0
 62
   255
370
    -3
100
AcDbPolyline
 90
        2
 70
     0
 43
0.0
 10
2039.082352208763
 20
-706.2941177086657
 10
2035.576469855822
 20
-706.2941177086657
  0
LWPOLYLINE
  5
354F
330
2
100
AcDbEntity
  8
0
 62
   255
370
    -3
100
AcDbPolyline
 90
        2
 70
     0
 43
0.0
 10
2034.729411032293
 20
-707.6117647674892
 10
2039.082352208763
 20
-707.6117647674892
  0
LWPOLYLINE
  5
3550
330
2
100
AcDbEntity
  8
0
 62
   255
370
    -3
100
AcDbPolyline
 90
        2
 70
     0
 43
0.0
 10
2039.082352208763
 20
-708.6705882969011
 10
2035.01176397347
 20
-708.6705882969011
  0
LWPOLYLINE
  5
3551
330
2
100
AcDbEntity
  8
0
 62
   255
370
    -3
100
AcDbPolyline
 90
        2
 70
     0
 43
0.0
 10
2035.741175738175
 20
-709.9882353557244
 10
2039.082352208763
 20
-709.9882353557244
  0
LWPOLYLINE
  5
3552
330
2
100
AcDbEntity
  8
0
 62
   255
370
    -3
100
AcDbPolyline
 90
        2
 70
     0
 43
0.0
 10
2084.776469855823
 20
-704.9529412380775
 10
2076.094116914646
 20
-704.9529412380775
  0
LWPOLYLINE
  5
3553
330
2
100
AcDbEntity
  8
0
 62
   255
370
    -3
100
AcDbPolyline
 90
        2
 70
     0
 43
0.0
 10
2076.094116914646
 20
-707.9647059439597
 10
2084.776469855823
 20
-707.9647059439597
  0
LWPOLYLINE
  5
3554
330
2
100
AcDbEntity
  8
0
 62
   255
370
    -3
100
AcDbPolyline
 90
        2
 70
     0
 43
0.0
 10
2084.776469855823
 20
-707.9647059439597
 10
2085.082352208764
 20
-707.776470649842
  0
LWPOLYLINE
  5
3555
330
2
100
AcDbEntity
  8
0
 62
   255
370
    -3
100
AcDbPolyline
 90
        2
 70
     0
 43
0.0
 10
2085.082352208764
 20
-705.1411765321952
 10
2084.776469855823
 20
-704.9529412380775
  0
LWPOLYLINE
  5
3556
330
2
100
AcDbEntity
  8
0
 62
   255
370
    -3
100
AcDbPolyline
 90
        2
 70
     0
 43
0.0
 10
2040.070587502881
 20
-714.4588235910187
 10
2071.199999267587
 20
-714.4588235910187
  0
LWPOLYLINE
  5
3557
330
2
100
AcDbEntity
  8
0
 62
   255
370
    -3
100
AcDbPolyline
 90
        2
 70
     0
 43
0.0
 10
2071.199999267587
 20
-698.4588235910186
 10
2067.082352208764
 20
-698.4588235910186
  0
LWPOLYLINE
  5
3558
330
2
100
AcDbEntity
  8
0
 62
   255
370
    -3
100
AcDbPolyline
 90
        2
 70
     0
 43
0.0
 10
2047.082352208764
 20
-698.4588235910186
 10
2040.070587502881
 20
-698.4588235910186
  0
LWPOLYLINE
  5
355B
330
2
100
AcDbEntity
  8
0
 62
     2
370
    -3
100
AcDbPolyline
 90
       26
 70
     0
 43
0.0
 10
2075.788234561705
 20
-711.4470588851362
 10
2075.788234561705
 20
-711.4470588851362
 10
2075.788234561705
 20
-711.3294118263127
 10
2075.788234561705
 20
-711.1411765321952
 10
2075.788234561705
 20
-710.8823530027835
 10
2075.788234561705
 20
-710.5529412380775
 10
2075.788234561705
 20
-710.1529412380775
 10
2075.788234561705
 20
-709.7058824145482
 10
2075.788234561705
 20
-709.1882353557244
 10
2075.788234561705
 20
-708.6235294733717
 10
2075.788234561705
 20
-708.035294179254
 10
2075.788234561705
 20
-707.4235294733718
 10
2075.788234561705
 20
-706.7882353557246
 10
2075.788234561705
 20
-706.1294118263129
 10
2075.788234561705
 20
-705.4941177086657
 10
2075.788234561705
 20
-704.8823530027833
 10
2075.788234561705
 20
-704.2941177086658
 10
2075.788234561705
 20
-703.7294118263126
 10
2075.788234561705
 20
-703.2117647674892
 10
2075.788234561705
 20
-702.7647059439598
 10
2075.788234561705
 20
-702.3411765321951
 10
2075.788234561705
 20
-702.035294179254
 10
2075.788234561705
 20
-701.7529412380773
 10
2075.788234561705
 20
-701.5647059439597
 10
2075.788234561705
 20
-701.4705882969009
 10
2075.788234561705
 20
-701.4470588851362
  0
LWPOLYLINE
  5
355C
330
2
100
AcDbEntity
  8
0
 62
   255
370
    -3
100
AcDbPolyline
 90
       25
 70
     0
 43
0.0
 10
2076.094116914646
 20
-711.1647059439597
 10
2076.094116914646
 20
-711.1647059439597
 10
2076.094116914646
 20
-711.0941177086657
 10
2076.094116914646
 20
-710.9529412380775
 10
2076.094116914646
 20
-710.7176471204304
 10
2076.094116914646
 20
-710.435294179254
 10
2076.094116914646
 20
-710.0352941792538
 10
2076.094116914646
 20
-709.6117647674892
 10
2076.094116914646
 20
-709.1176471204304
 10
2076.094116914646
 20
-708.5764706498422
 10
2076.094116914646
 20
-707.9882353557244
 10
2076.094116914646
 20
-707.4000000616068
 10
2076.094116914646
 20
-706.7647059439598
 10
2076.094116914646
 20
-706.1529412380775
 10
2076.094116914646
 20
-705.5176471204304
 10
2076.094116914646
 20
-704.9294118263127
 10
2076.094116914646
 20
-704.3411765321951
 10
2076.094116914646
 20
-703.8000000616071
 10
2076.094116914646
 20
-703.3058824145481
 10
2076.094116914646
 20
-702.8588235910186
 10
2076.094116914646
 20
-702.4823530027831
 10
2076.094116914646
 20
-702.2000000616069
 10
2076.094116914646
 20
-701.9647059439598
 10
2076.094116914646
 20
-701.8235294733715
 10
2076.094116914646
 20
-701.7529412380773
  0
LWPOLYLINE
  5
355D
330
2
100
AcDbEntity
  8
0
 62
   255
370
    -3
100
AcDbPolyline
 90
        2
 70
     0
 43
0.0
 10
2047.082352208764
 20
-703.4470588851363
 10
2047.082352208764
 20
-703.3764706498422
  0
LWPOLYLINE
  5
355E
330
2
100
AcDbEntity
  8
0
 62
   255
370
    -3
100
AcDbPolyline
 90
       18
 70
     0
 43
0.0
 10
2047.082352208764
 20
-703.3764706498422
 10
2047.082352208764
 20
-703.4705882969009
 10
2047.082352208764
 20
-703.5411765321953
 10
2047.105881620529
 20
-703.6117647674892
 10
2047.129411032293
 20
-703.6823530027833
 10
2047.152940444058
 20
-703.7529412380775
 10
2047.199999267587
 20
-703.8235294733715
 10
2047.247058091117
 20
-703.8941177086658
 10
2047.294116914646
 20
-703.9647059439597
 10
2047.341175738175
 20
-704.0352941792538
 10
2047.482352208764
 20
-704.1529412380775
 10
2047.552940444058
 20
-704.1764706498423
 10
2047.623528679352
 20
-704.2235294733716
 10
2047.764705149941
 20
-704.2941177086658
 10
2047.858822796999
 20
-704.3176471204304
 10
2047.905881620529
 20
-704.3176471204304
 10
2048.023528679352
 20
-704.3176471204304
 10
2048.070587502882
 20
-704.3176471204304
  0
LWPOLYLINE
  5
355F
330
2
100
AcDbEntity
  8
0
 62
   255
370
    -3
100
AcDbPolyline
 90
        2
 70
     0
 43
0.0
 10
2048.070587502882
 20
-704.3176471204304
 10
2048.070587502882
 20
-704.3882353557246
  0
LWPOLYLINE
  5
3560
330
2
100
AcDbEntity
  8
0
 62
   255
370
    -3
100
AcDbPolyline
 90
       18
 70
     0
 43
0.0
 10
2048.070587502882
 20
-704.3882353557246
 10
2047.999999267588
 20
-704.3882353557246
 10
2047.905881620529
 20
-704.3647059439599
 10
2047.835293385234
 20
-704.3647059439599
 10
2047.741175738176
 20
-704.3176471204304
 10
2047.670587502882
 20
-704.2941177086658
 10
2047.599999267587
 20
-704.2705882969009
 10
2047.529411032293
 20
-704.2235294733716
 10
2047.458822796999
 20
-704.1764706498423
 10
2047.388234561705
 20
-704.1058824145482
 10
2047.270587502882
 20
-704.0117647674893
 10
2047.223528679352
 20
-703.9411765321951
 10
2047.199999267587
 20
-703.8705882969011
 10
2047.129411032293
 20
-703.7294118263126
 10
2047.105881620529
 20
-703.6588235910186
 10
2047.082352208764
 20
-703.5882353557244
 10
2047.082352208764
 20
-703.4941177086657
 10
2047.082352208764
 20
-703.4470588851363
  0
LWPOLYLINE
  5
3561
330
2
100
AcDbEntity
  8
0
 62
   255
370
    -3
100
AcDbPolyline
 90
       12
 70
     0
 43
0.0
 10
2047.082352208764
 20
-703.3764706498422
 10
2047.082352208764
 20
-702.6235294733717
 10
2047.082352208764
 20
-701.8941177086658
 10
2047.082352208764
 20
-701.2117647674893
 10
2047.082352208764
 20
-700.5764706498422
 10
2047.082352208764
 20
-700.035294179254
 10
2047.082352208764
 20
-699.5411765321953
 10
2047.082352208764
 20
-699.1176471204304
 10
2047.082352208764
 20
-698.7882353557246
 10
2047.082352208764
 20
-698.5294118263127
 10
2047.082352208764
 20
-698.3647059439598
 10
2047.082352208764
 20
-698.2470588851363
  0
LWPOLYLINE
  5
3562
330
2
100
AcDbEntity
  8
0
 62
   255
370
    -3
100
AcDbPolyline
 90
       12
 70
     0
 43
0.0
 10
2067.082352208764
 20
-703.3764706498422
 10
2067.082352208764
 20
-702.6235294733717
 10
2067.082352208764
 20
-701.8941177086658
 10
2067.082352208764
 20
-701.2117647674893
 10
2067.082352208764
 20
-700.5764706498422
 10
2067.082352208764
 20
-700.035294179254
 10
2067.082352208764
 20
-699.5411765321953
 10
2067.082352208764
 20
-699.1176471204304
 10
2067.082352208764
 20
-698.7882353557246
 10
2067.082352208764
 20
-698.5294118263127
 10
2067.082352208764
 20
-698.3647059439598
 10
2067.082352208764
 20
-698.2470588851363
  0
LWPOLYLINE
  5
3563
330
2
100
AcDbEntity
  8
0
 62
   255
370
    -3
100
AcDbPolyline
 90
       18
 70
     0
 43
0.0
 10
2066.070587502882
 20
-704.3176471204304
 10
2066.16470514994
 20
-704.3176471204304
 10
2066.258822796999
 20
-704.3176471204304
 10
2066.329411032294
 20
-704.2941177086658
 10
2066.423528679353
 20
-704.2941177086658
 10
2066.494116914646
 20
-704.2470588851363
 10
2066.56470514994
 20
-704.2235294733716
 10
2066.635293385234
 20
-704.1764706498423
 10
2066.705881620529
 20
-704.1058824145482
 10
2066.776469855823
 20
-704.0823530027834
 10
2066.894116914646
 20
-703.9411765321951
 10
2066.941175738175
 20
-703.8941177086658
 10
2066.96470514994
 20
-703.8235294733715
 10
2067.035293385234
 20
-703.6588235910186
 10
2067.058822796999
 20
-703.5882353557244
 10
2067.058822796999
 20
-703.5411765321953
 10
2067.082352208764
 20
-703.4470588851363
 10
2067.082352208764
 20
-703.3764706498422
  0
LWPOLYLINE
  5
3564
330
2
100
AcDbEntity
  8
0
 62
   255
370
    -3
100
AcDbPolyline
 90
        2
 70
     0
 43
0.0
 10
2066.070587502882
 20
-704.3176471204304
 10
2048.070587502882
 20
-704.3176471204304
  0
LWPOLYLINE
  5
3565
330
2
100
AcDbEntity
  8
0
 62
   255
370
    -3
100
AcDbPolyline
 90
        2
 70
     0
 43
0.0
 10
2066.070587502882
 20
-704.3882353557246
 10
2066.070587502882
 20
-704.3176471204304
  0
LWPOLYLINE
  5
3566
330
2
100
AcDbEntity
  8
0
 62
   255
370
    -3
100
AcDbPolyline
 90
        2
 70
     0
 43
0.0
 10
2067.082352208764
 20
-703.3764706498422
 10
2067.082352208764
 20
-703.4470588851363
  0
LWPOLYLINE
  5
3567
330
2
100
AcDbEntity
  8
0
 62
   255
370
    -3
100
AcDbPolyline
 90
       18
 70
     0
 43
0.0
 10
2067.082352208764
 20
-703.4470588851363
 10
2067.082352208764
 20
-703.5176471204303
 10
2067.058822796999
 20
-703.5882353557244
 10
2067.058822796999
 20
-703.6588235910186
 10
2067.035293385234
 20
-703.7529412380775
 10
2066.988234561705
 20
-703.8235294733715
 10
2066.96470514994
 20
-703.8941177086658
 10
2066.917646326411
 20
-703.9647059439597
 10
2066.870587502881
 20
-704.0117647674893
 10
2066.823528679352
 20
-704.0823530027834
 10
2066.682352208764
 20
-704.1764706498423
 10
2066.61176397347
 20
-704.2470588851363
 10
2066.541175738175
 20
-704.2705882969009
 10
2066.399999267587
 20
-704.3411765321951
 10
2066.305881620529
 20
-704.3647059439599
 10
2066.258822796999
 20
-704.3647059439599
 10
2066.141175738176
 20
-704.3882353557246
 10
2066.070587502882
 20
-704.3882353557246
  0
LWPOLYLINE
  5
3568
330
2
100
AcDbEntity
  8
0
 62
   255
370
    -3
100
AcDbPolyline
 90
        2
 70
     0
 43
0.0
 10
2066.070587502882
 20
-704.3882353557246
 10
2048.070587502882
 20
-704.3882353557246
  0
LWPOLYLINE
  5
3569
330
2
100
AcDbEntity
  8
0
 62
   255
370
    -3
100
AcDbPolyline
 90
       32
 70
     0
 43
0.0
 10
2040.070587502881
 20
-714.4588235910187
 10
2040.070587502881
 20
-714.4117647674893
 10
2040.070587502881
 20
-714.2941177086657
 10
2040.070587502881
 20
-714.105882414548
 10
2040.070587502881
 20
-713.8235294733715
 10
2040.070587502881
 20
-713.4705882969009
 10
2040.070587502881
 20
-713.0235294733714
 10
2040.070587502881
 20
-712.5294118263127
 10
2040.070587502881
 20
-711.9647059439597
 10
2040.070587502881
 20
-711.3529412380775
 10
2040.070587502881
 20
-710.6941177086658
 10
2040.070587502881
 20
-709.9647059439597
 10
2040.070587502881
 20
-709.2352941792539
 10
2040.070587502881
 20
-708.4588235910187
 10
2040.070587502881
 20
-707.6823530027833
 10
2040.070587502881
 20
-706.8588235910186
 10
2040.070587502881
 20
-706.0588235910187
 10
2040.070587502881
 20
-705.2352941792539
 10
2040.070587502881
 20
-704.4588235910187
 10
2040.070587502881
 20
-703.6823530027833
 10
2040.070587502881
 20
-702.9294118263127
 10
2040.070587502881
 20
-702.2235294733716
 10
2040.070587502881
 20
-701.5647059439597
 10
2040.070587502881
 20
-700.9294118263127
 10
2040.070587502881
 20
-700.3882353557246
 10
2040.070587502881
 20
-699.8941177086658
 10
2040.070587502881
 20
-699.4470588851362
 10
2040.070587502881
 20
-699.0941177086657
 10
2040.070587502881
 20
-698.8117647674893
 10
2040.070587502881
 20
-698.6000000616069
 10
2040.070587502881
 20
-698.5058824145482
 10
2040.070587502881
 20
-698.4588235910186
  0
LWPOLYLINE
  5
356A
330
2
100
AcDbEntity
  8
0
 62
   255
370
    -3
100
AcDbPolyline
 90
       32
 70
     0
 43
0.0
 10
2039.082352208763
 20
-714.4588235910187
 10
2039.082352208763
 20
-714.4117647674893
 10
2039.082352208763
 20
-714.2941177086657
 10
2039.082352208763
 20
-714.105882414548
 10
2039.082352208763
 20
-713.8235294733715
 10
2039.082352208763
 20
-713.4705882969009
 10
2039.082352208763
 20
-713.0235294733714
 10
2039.082352208763
 20
-712.5294118263127
 10
2039.082352208763
 20
-711.9647059439597
 10
2039.082352208763
 20
-711.3529412380775
 10
2039.082352208763
 20
-710.6941177086658
 10
2039.082352208763
 20
-709.9647059439597
 10
2039.082352208763
 20
-709.2352941792539
 10
2039.082352208763
 20
-708.4588235910187
 10
2039.082352208763
 20
-707.6823530027833
 10
2039.082352208763
 20
-706.8588235910186
 10
2039.082352208763
 20
-706.0588235910187
 10
2039.082352208763
 20
-705.2352941792539
 10
2039.082352208763
 20
-704.4588235910187
 10
2039.082352208763
 20
-703.6823530027833
 10
2039.082352208763
 20
-702.9294118263127
 10
2039.082352208763
 20
-702.2235294733716
 10
2039.082352208763
 20
-701.5647059439597
 10
2039.082352208763
 20
-700.9294118263127
 10
2039.082352208763
 20
-700.3882353557246
 10
2039.082352208763
 20
-699.8941177086658
 10
2039.082352208763
 20
-699.4470588851362
 10
2039.082352208763
 20
-699.0941177086657
 10
2039.082352208763
 20
-698.8117647674893
 10
2039.082352208763
 20
-698.6000000616069
 10
2039.082352208763
 20
-698.5058824145482
 10
2039.082352208763
 20
-698.4588235910186
  0
LWPOLYLINE
  5
356B
330
2
100
AcDbEntity
  8
0
 62
   255
370
    -3
100
AcDbPolyline
 90
        6
 70
     0
 43
0.0
 10
2034.729411032293
 20
-712.0823530027834
 10
2034.729411032293
 20
-712.0823530027834
 10
2034.729411032293
 20
-712.0117647674893
 10
2034.729411032293
 20
-711.8705882969011
 10
2034.729411032293
 20
-711.6588235910186
 10
2034.729411032293
 20
-711.5882353557244
  0
LWPOLYLINE
  5
356C
330
2
100
AcDbEntity
  8
0
 62
   255
370
    -3
100
AcDbPolyline
 90
        3
 70
     0
 43
0.0
 10
2034.729411032293
 20
-707.9411765321951
 10
2034.729411032293
 20
-707.7058824145482
 10
2034.729411032293
 20
-707.6117647674892
  0
LWPOLYLINE
  5
356D
330
2
100
AcDbEntity
  8
0
 62
   255
370
    -3
100
AcDbPolyline
 90
        3
 70
     0
 43
0.0
 10
2034.729411032293
 20
-708.2000000616069
 10
2034.729411032293
 20
-708.1764706498423
 10
2034.729411032293
 20
-707.9411765321951
  0
LWPOLYLINE
  5
356E
330
2
100
AcDbEntity
  8
0
 62
   255
370
    -3
100
AcDbPolyline
 90
        6
 70
     0
 43
0.0
 10
2034.729411032293
 20
-707.6117647674892
 10
2034.729411032293
 20
-707.6117647674892
 10
2034.729411032293
 20
-707.5411765321953
 10
2034.729411032293
 20
-707.4000000616068
 10
2034.729411032293
 20
-707.1882353557246
 10
2034.729411032293
 20
-707.1647059439598
  0
LWPOLYLINE
  5
356F
330
2
100
AcDbEntity
  8
0
 62
     2
370
    -3
100
AcDbPolyline
 90
        7
 70
     0
 43
0.0
 10
2084.776469855823
 20
-707.9647059439597
 10
2084.776469855823
 20
-706.0823530027834
 10
2084.776469855823
 20
-705.7529412380773
 10
2084.776469855823
 20
-705.4470588851362
 10
2084.776469855823
 20
-705.2117647674893
 10
2084.776469855823
 20
-705.0470588851363
 10
2084.776469855823
 20
-704.9529412380775
  0
LWPOLYLINE
  5
3571
330
2
100
AcDbEntity
  8
0
 62
   255
370
    -3
100
AcDbPolyline
 90
        7
 70
     0
 43
0.0
 10
2085.082352208764
 20
-706.4588235910187
 10
2085.082352208764
 20
-706.7882353557246
 10
2085.082352208764
 20
-707.0941177086657
 10
2085.082352208764
 20
-707.3529412380777
 10
2085.082352208764
 20
-707.5647059439598
 10
2085.082352208764
 20
-707.7058824145482
 10
2085.082352208764
 20
-707.776470649842
  0
LWPOLYLINE
  5
3572
330
2
100
AcDbEntity
  8
0
 62
   255
370
    -3
100
AcDbPolyline
 90
        8
 70
     0
 43
0.0
 10
2085.082352208764
 20
-705.1411765321952
 10
2085.082352208764
 20
-705.1411765321952
 10
2085.082352208764
 20
-705.1882353557246
 10
2085.082352208764
 20
-705.3294118263127
 10
2085.082352208764
 20
-705.5411765321951
 10
2085.082352208764
 20
-705.8235294733715
 10
2085.082352208764
 20
-706.1294118263129
 10
2085.082352208764
 20
-706.4588235910187
  0
LWPOLYLINE
  5
3573
330
2
100
AcDbEntity
  8
0
 62
   255
370
    -3
100
AcDbPolyline
 90
       32
 70
     0
 43
0.0
 10
2040.070587502881
 20
-714.4588235910187
 10
2040.070587502881
 20
-714.4117647674893
 10
2040.070587502881
 20
-714.2941177086657
 10
2040.070587502881
 20
-714.105882414548
 10
2040.070587502881
 20
-713.8235294733715
 10
2040.070587502881
 20
-713.4705882969009
 10
2040.070587502881
 20
-713.0235294733714
 10
2040.070587502881
 20
-712.5294118263127
 10
2040.070587502881
 20
-711.9647059439597
 10
2040.070587502881
 20
-711.3529412380775
 10
2040.070587502881
 20
-710.6941177086658
 10
2040.070587502881
 20
-709.9647059439597
 10
2040.070587502881
 20
-709.2352941792539
 10
2040.070587502881
 20
-708.4588235910187
 10
2040.070587502881
 20
-707.6823530027833
 10
2040.070587502881
 20
-706.8588235910186
 10
2040.070587502881
 20
-706.0588235910187
 10
2040.070587502881
 20
-705.2352941792539
 10
2040.070587502881
 20
-704.4588235910187
 10
2040.070587502881
 20
-703.6823530027833
 10
2040.070587502881
 20
-702.9294118263127
 10
2040.070587502881
 20
-702.2235294733716
 10
2040.070587502881
 20
-701.5647059439597
 10
2040.070587502881
 20
-700.9294118263127
 10
2040.070587502881
 20
-700.3882353557246
 10
2040.070587502881
 20
-699.8941177086658
 10
2040.070587502881
 20
-699.4470588851362
 10
2040.070587502881
 20
-699.0941177086657
 10
2040.070587502881
 20
-698.8117647674893
 10
2040.070587502881
 20
-698.6000000616069
 10
2040.070587502881
 20
-698.5058824145482
 10
2040.070587502881
 20
-698.4588235910186
  0
LWPOLYLINE
  5
3575
330
2
100
AcDbEntity
  8
0
 62
   255
370
    -3
100
AcDbPolyline
 90
       13
 70
     0
 43
0.0
 10
2075.247058091117
 20
-706.4588235910187
 10
2075.247058091117
 20
-707.0941177086657
 10
2075.247058091117
 20
-707.7294118263126
 10
2075.247058091117
 20
-708.3411765321951
 10
2075.247058091117
 20
-708.9058824145482
 10
2075.247058091117
 20
-709.4470588851362
 10
2075.247058091117
 20
-709.9411765321953
 10
2075.247058091117
 20
-710.3647059439598
 10
2075.247058091117
 20
-710.7411765321951
 10
2075.247058091117
 20
-711.0235294733715
 10
2075.247058091117
 20
-711.2588235910187
 10
2075.247058091117
 20
-711.4000000616068
 10
2075.247058091117
 20
-711.4470588851362
  0
LWPOLYLINE
  5
3576
330
2
100
AcDbEntity
  8
0
 62
   255
370
    -3
100
AcDbPolyline
 90
       14
 70
     0
 43
0.0
 10
2075.247058091117
 20
-701.4470588851362
 10
2075.247058091117
 20
-701.4705882969009
 10
2075.247058091117
 20
-701.5176471204304
 10
2075.247058091117
 20
-701.6588235910186
 10
2075.247058091117
 20
-701.8941177086658
 10
2075.247058091117
 20
-702.1764706498422
 10
2075.247058091117
 20
-702.5529412380775
 10
2075.247058091117
 20
-702.9764706498422
 10
2075.247058091117
 20
-703.4705882969009
 10
2075.247058091117
 20
-704.0117647674893
 10
2075.247058091117
 20
-704.5764706498422
 10
2075.247058091117
 20
-705.1882353557246
 10
2075.247058091117
 20
-705.8235294733715
 10
2075.247058091117
 20
-706.4588235910187
  0
LWPOLYLINE
  5
3577
330
2
100
AcDbEntity
  8
0
 62
   255
370
    -3
100
AcDbPolyline
 90
        2
 70
     0
 43
0.0
 10
2029.76470514994
 20
-705.9882353557244
 10
2021.694116914646
 20
-705.9882353557244
  0
LWPOLYLINE
  5
3578
330
2
100
AcDbEntity
  8
0
 62
   255
370
    -3
100
AcDbPolyline
 90
        2
 70
     0
 43
0.0
 10
2021.694116914646
 20
-707.2823530027833
 10
2030.376469855823
 20
-707.2823530027833
  0
LWPOLYLINE
  5
3579
102
{ACAD_REACTORS
330
36DB
102
}
330
2
100
AcDbEntity
  8
0
 62
   255
370
    -3
100
AcDbPolyline
 90
        2
 70
     0
 43
0.0
 10
2021.694116914646
 20
-706.270588296901
 10
2017.694116914646
 20
-706.270588296901
  0
LWPOLYLINE
  5
357A
102
{ACAD_REACTORS
330
36DB
102
}
330
2
100
AcDbEntity
  8
0
 62
   255
370
    -3
100
AcDbPolyline
 90
        2
 70
     0
 43
0.0
 10
2017.694116914646
 20
-706.9764706498422
 10
2021.694116914646
 20
-706.9764706498422
  0
LWPOLYLINE
  5
357B
102
{ACAD_REACTORS
330
36DB
102
}
330
2
100
AcDbEntity
  8
0
 62
   255
370
    -3
100
AcDbPolyline
 90
        5
 70
     0
 43
0.0
 10
2021.694116914646
 20
-707.2823530027833
 10
2021.694116914646
 20
-706.3882353557247
 10
2021.694116914646
 20
-706.2000000616069
 10
2021.694116914646
 20
-706.0588235910187
 10
2021.694116914646
 20
-705.9882353557244
  0
LWPOLYLINE
  5
357D
102
{ACAD_REACTORS
330
36DB
102
}
330
2
100
AcDbEntity
  8
0
 62
   255
370
    -3
100
AcDbPolyline
 90
        5
 70
     0
 43
0.0
 10
2017.694116914646
 20
-706.6235294733717
 10
2017.694116914646
 20
-706.5058824145482
 10
2017.694116914646
 20
-706.3882353557247
 10
2017.694116914646
 20
-706.2941177086657
 10
2017.694116914646
 20
-706.270588296901
  0
LWPOLYLINE
  5
357E
102
{ACAD_REACTORS
330
36DB
102
}
330
2
100
AcDbEntity
  8
0
 62
   255
370
    -3
100
AcDbPolyline
 90
        5
 70
     0
 43
0.0
 10
2017.694116914646
 20
-706.9764706498422
 10
2017.694116914646
 20
-706.9529412380775
 10
2017.694116914646
 20
-706.8823530027835
 10
2017.694116914646
 20
-706.7647059439598
 10
2017.694116914646
 20
-706.6235294733717
  0
LWPOLYLINE
  5
357F
330
2
100
AcDbEntity
  8
0
 62
   255
370
    -3
100
AcDbPolyline
 90
        2
 70
     0
 43
0.0
 10
1981.498457641015
 20
-707.0470588851364
 10
1981.404339993956
 20
-707.1176471204304
  0
LWPOLYLINE
  5
3580
330
2
100
AcDbEntity
  8
0
 62
   255
370
    -3
100
AcDbPolyline
 90
        5
 70
     0
 43
0.0
 10
1982.298457641015
 20
-708.6705882969011
 10
1982.392575288074
 20
-708.6000000616069
 10
1982.627869405721
 20
-708.4352941792539
 10
1982.792575288074
 20
-708.2000000616069
 10
1982.792575288074
 20
-708.1764706498423
  0
LWPOLYLINE
  5
3581
330
2
100
AcDbEntity
  8
0
 62
   255
370
    -3
100
AcDbPolyline
 90
        4
 70
     0
 43
0.0
 10
1982.086692935133
 20
-706.9294118263127
 10
1982.039634111603
 20
-706.9294118263127
 10
1981.757281170427
 20
-706.9529412380775
 10
1981.498457641015
 20
-707.0470588851364
  0
LWPOLYLINE
  5
3582
330
2
100
AcDbEntity
  8
0
 62
   255
370
    -3
100
AcDbPolyline
 90
        2
 70
     0
 43
0.0
 10
1987.169045876309
 20
-705.8705882969011
 10
1987.263163523368
 20
-705.8000000616068
  0
LWPOLYLINE
  5
3583
330
2
100
AcDbEntity
  8
0
 62
   255
370
    -3
100
AcDbPolyline
 90
        5
 70
     0
 43
0.0
 10
1986.369045876309
 20
-704.2470588851363
 10
1986.274928229249
 20
-704.2941177086658
 10
1986.039634111603
 20
-704.4823530027834
 10
1985.898457641015
 20
-704.7176471204304
 10
1985.87492822925
 20
-704.7411765321951
  0
LWPOLYLINE
  5
3584
330
2
100
AcDbEntity
  8
0
 62
   255
370
    -3
100
AcDbPolyline
 90
        4
 70
     0
 43
0.0
 10
1986.580810582191
 20
-705.9647059439598
 10
1986.627869405721
 20
-705.9882353557244
 10
1986.910222346897
 20
-705.9647059439598
 10
1987.169045876309
 20
-705.8705882969011
  0
LWPOLYLINE
  5
3585
330
2
100
AcDbEntity
  8
0
 62
   255
370
    -3
100
AcDbPolyline
 90
        2
 70
     0
 43
0.0
 10
1985.239634111603
 20
-703.7058824145482
 10
1985.216104699838
 20
-703.5882353557244
  0
LWPOLYLINE
  5
3586
330
2
100
AcDbEntity
  8
0
 62
   255
370
    -3
100
AcDbPolyline
 90
        5
 70
     0
 43
0.0
 10
1983.451398817486
 20
-703.5882353557244
 10
1983.427869405721
 20
-703.7058824145482
 10
1983.47492822925
 20
-703.9882353557247
 10
1983.592575288074
 20
-704.2235294733716
 10
1983.639634111603
 20
-704.2705882969009
  0
LWPOLYLINE
  5
3587
330
2
100
AcDbEntity
  8
0
 62
   255
370
    -3
100
AcDbPolyline
 90
        4
 70
     0
 43
0.0
 10
1985.051398817486
 20
-704.2705882969009
 10
1985.07492822925
 20
-704.2235294733716
 10
1985.192575288074
 20
-703.9882353557247
 10
1985.239634111603
 20
-703.7058824145482
  0
LWPOLYLINE
  5
3588
330
2
100
AcDbEntity
  8
0
 62
   255
370
    -3
100
AcDbPolyline
 90
        5
 70
     0
 43
0.0
 10
1985.87492822925
 20
-708.1764706498423
 10
1985.898457641015
 20
-708.2000000616069
 10
1986.039634111603
 20
-708.4352941792539
 10
1986.274928229249
 20
-708.6000000616069
 10
1986.369045876309
 20
-708.6705882969011
  0
LWPOLYLINE
  5
3589
330
2
100
AcDbEntity
  8
0
 62
   255
370
    -3
100
AcDbPolyline
 90
        5
 70
     0
 43
0.0
 10
1987.263163523368
 20
-707.1176471204304
 10
1987.169045876309
 20
-707.0470588851364
 10
1986.910222346897
 20
-706.9529412380775
 10
1986.627869405721
 20
-706.9294118263127
 10
1986.580810582191
 20
-706.9294118263127
  0
LWPOLYLINE
  5
358A
330
2
100
AcDbEntity
  8
0
 62
   255
370
    -3
100
AcDbPolyline
 90
        2
 70
     0
 43
0.0
 10
1983.427869405721
 20
-709.2117647674893
 10
1983.451398817486
 20
-709.3294118263127
  0
LWPOLYLINE
  5
358B
330
2
100
AcDbEntity
  8
0
 62
   255
370
    -3
100
AcDbPolyline
 90
        5
 70
     0
 43
0.0
 10
1985.216104699838
 20
-709.3294118263127
 10
1985.239634111603
 20
-709.2117647674893
 10
1985.192575288074
 20
-708.9294118263127
 10
1985.07492822925
 20
-708.6705882969011
 10
1985.051398817486
 20
-708.6470588851364
  0
LWPOLYLINE
  5
358C
330
2
100
AcDbEntity
  8
0
 62
   255
370
    -3
100
AcDbPolyline
 90
        4
 70
     0
 43
0.0
 10
1983.639634111603
 20
-708.6470588851364
 10
1983.592575288074
 20
-708.6705882969011
 10
1983.47492822925
 20
-708.9294118263127
 10
1983.427869405721
 20
-709.2117647674893
  0
LWPOLYLINE
  5
358D
330
2
100
AcDbEntity
  8
0
 62
   255
370
    -3
100
AcDbPolyline
 90
        5
 70
     0
 43
0.0
 10
1982.792575288074
 20
-704.7411765321951
 10
1982.792575288074
 20
-704.7176471204304
 10
1982.627869405721
 20
-704.4823530027834
 10
1982.392575288074
 20
-704.2941177086658
 10
1982.298457641015
 20
-704.2470588851363
  0
LWPOLYLINE
  5
358E
330
2
100
AcDbEntity
  8
0
 62
   255
370
    -3
100
AcDbPolyline
 90
        5
 70
     0
 43
0.0
 10
1981.404339993956
 20
-705.8000000616068
 10
1981.498457641015
 20
-705.8705882969011
 10
1981.757281170427
 20
-705.9647059439598
 10
1982.039634111603
 20
-705.9882353557244
 10
1982.086692935133
 20
-705.9647059439598
  0
LWPOLYLINE
  5
358F
330
2
100
AcDbEntity
  8
0
 62
     2
370
    -3
100
AcDbPolyline
 90
       48
 70
     0
 43
0.0
 10
1989.027869405721
 20
-706.4588235910187
 10
1989.004339993956
 20
-707.0705882969011
 10
1988.863163523368
 20
-707.7058824145482
 10
1988.67492822925
 20
-708.2941177086658
 10
1988.392575288074
 20
-708.8588235910187
 10
1988.016104699839
 20
-709.3764706498421
 10
1987.616104699839
 20
-709.8235294733715
 10
1987.12198705278
 20
-710.2470588851363
 10
1986.604339993956
 20
-710.5764706498422
 10
1986.039634111603
 20
-710.8588235910186
 10
1985.427869405721
 20
-711.0235294733715
 10
1984.792575288074
 20
-711.1411765321952
 10
1984.180810582191
 20
-711.1647059439597
 10
1983.569045876309
 20
-711.0941177086657
 10
1982.933751758662
 20
-710.9529412380775
 10
1982.369045876309
 20
-710.7176471204304
 10
1981.804339993956
 20
-710.435294179254
 10
1981.310222346897
 20
-710.0352941792538
 10
1980.839634111603
 20
-709.6117647674892
 10
1980.463163523368
 20
-709.1176471204304
 10
1980.133751758662
 20
-708.5764706498422
 10
1979.898457641015
 20
-707.9882353557244
 10
1979.733751758662
 20
-707.4000000616068
 10
1979.639634111603
 20
-706.7647059439598
 10
1979.639634111603
 20
-706.1529412380775
 10
1979.733751758662
 20
-705.5176471204304
 10
1979.898457641015
 20
-704.9294118263127
 10
1980.133751758662
 20
-704.3411765321951
 10
1980.463163523368
 20
-703.8000000616071
 10
1980.839634111603
 20
-703.3058824145481
 10
1981.310222346897
 20
-702.8588235910186
 10
1981.804339993956
 20
-702.4823530027831
 10
1982.369045876309
 20
-702.2000000616069
 10
1982.933751758662
 20
-701.9647059439598
 10
1983.569045876309
 20
-701.8235294733715
 10
1984.180810582191
 20
-701.7529412380773
 10
1984.792575288074
 20
-701.7764706498422
 10
1985.427869405721
 20
-701.8941177086658
 10
1986.039634111603
 20
-702.0588235910187
 10
1986.604339993956
 20
-702.3411765321951
 10
1987.12198705278
 20
-702.6705882969011
 10
1987.616104699839
 20
-703.0705882969011
 10
1988.016104699839
 20
-703.5411765321953
 10
1988.392575288074
 20
-704.0588235910187
 10
1988.67492822925
 20
-704.6235294733717
 10
1988.863163523368
 20
-705.2117647674893
 10
1989.004339993956
 20
-705.8235294733715
 10
1989.027869405721
 20
-706.4588235910187
  0
LWPOLYLINE
  5
3590
330
2
100
AcDbEntity
  8
0
 62
   255
370
    -3
100
AcDbPolyline
 90
       39
 70
     0
 43
0.0
 10
1987.333751758662
 20
-706.4588235910187
 10
1987.310222346897
 20
-706.9529412380775
 10
1987.169045876309
 20
-707.4235294733718
 10
1986.980810582192
 20
-707.8941177086658
 10
1986.698457641015
 20
-708.2941177086658
 10
1986.369045876309
 20
-708.6705882969011
 10
1985.969045876309
 20
-708.9764706498422
 10
1985.545516464544
 20
-709.2117647674893
 10
1985.07492822925
 20
-709.3764706498421
 10
1984.580810582192
 20
-709.4470588851362
 10
1984.086692935133
 20
-709.4470588851362
 10
1983.592575288074
 20
-709.3764706498421
 10
1983.145516464544
 20
-709.2117647674893
 10
1982.698457641015
 20
-708.9764706498422
 10
1982.298457641015
 20
-708.6705882969011
 10
1981.969045876309
 20
-708.2941177086658
 10
1981.686692935133
 20
-707.8941177086658
 10
1981.498457641015
 20
-707.4235294733718
 10
1981.380810582191
 20
-706.9529412380775
 10
1981.333751758662
 20
-706.4588235910187
 10
1981.380810582191
 20
-705.9647059439598
 10
1981.498457641015
 20
-705.4941177086657
 10
1981.686692935133
 20
-705.0235294733716
 10
1981.969045876309
 20
-704.6000000616069
 10
1982.298457641015
 20
-704.2470588851363
 10
1982.698457641015
 20
-703.9411765321951
 10
1983.145516464544
 20
-703.7058824145482
 10
1983.592575288074
 20
-703.5411765321953
 10
1984.086692935133
 20
-703.4705882969009
 10
1984.580810582192
 20
-703.4705882969009
 10
1985.07492822925
 20
-703.5411765321953
 10
1985.545516464544
 20
-703.7058824145482
 10
1985.969045876309
 20
-703.9411765321951
 10
1986.369045876309
 20
-704.2470588851363
 10
1986.698457641015
 20
-704.6000000616069
 10
1986.980810582192
 20
-705.0235294733716
 10
1987.169045876309
 20
-705.4941177086657
 10
1987.310222346897
 20
-705.9647059439598
 10
1987.333751758662
 20
-706.4588235910187
  0
LWPOLYLINE
  5
3591
330
2
100
AcDbEntity
  8
0
 62
   255
370
    -3
100
AcDbPolyline
 90
       50
 70
     0
 43
0.0
 10
1989.333751758662
 20
-706.4588235910187
 10
1989.286692935133
 20
-707.0941177086657
 10
1989.169045876309
 20
-707.7294118263126
 10
1988.957281170427
 20
-708.3411765321951
 10
1988.698457641015
 20
-708.9058824145482
 10
1988.345516464544
 20
-709.4470588851362
 10
1987.945516464544
 20
-709.9411765321953
 10
1987.451398817485
 20
-710.3647059439598
 10
1986.933751758662
 20
-710.7411765321951
 10
1986.345516464544
 20
-711.0235294733715
 10
1985.757281170427
 20
-711.2588235910187
 10
1985.145516464544
 20
-711.4000000616068
 10
1984.486692935133
 20
-711.4470588851362
 10
1983.851398817486
 20
-711.4470588851362
 10
1983.216104699838
 20
-711.3294118263127
 10
1982.604339993956
 20
-711.1411765321952
 10
1982.016104699838
 20
-710.8823530027835
 10
1981.474928229251
 20
-710.5529412380775
 10
1980.980810582192
 20
-710.1529412380775
 10
1980.533751758662
 20
-709.7058824145482
 10
1980.133751758662
 20
-709.1882353557244
 10
1979.827869405721
 20
-708.6235294733717
 10
1979.592575288074
 20
-708.035294179254
 10
1979.427869405721
 20
-707.4235294733718
 10
1979.333751758662
 20
-706.7882353557246
 10
1979.333751758662
 20
-706.1294118263129
 10
1979.427869405721
 20
-705.4941177086657
 10
1979.592575288074
 20
-704.8823530027833
 10
1979.827869405721
 20
-704.2941177086658
 10
1980.133751758662
 20
-703.7294118263126
 10
1980.533751758662
 20
-703.2117647674892
 10
1980.980810582192
 20
-702.7647059439598
 10
1981.474928229251
 20
-702.3411765321951
 10
1982.016104699838
 20
-702.035294179254
 10
1982.604339993956
 20
-701.7529412380773
 10
1983.216104699838
 20
-701.5647059439597
 10
1983.851398817486
 20
-701.4705882969009
 10
1984.486692935133
 20
-701.4705882969009
 10
1985.145516464544
 20
-701.5176471204304
 10
1985.757281170427
 20
-701.6588235910186
 10
1986.345516464544
 20
-701.8941177086658
 10
1986.933751758662
 20
-702.1764706498422
 10
1987.451398817485
 20
-702.5529412380775
 10
1987.945516464544
 20
-702.9764706498422
 10
1988.345516464544
 20
-703.4705882969009
 10
1988.698457641015
 20
-704.0117647674893
 10
1988.957281170427
 20
-704.5764706498422
 10
1989.169045876309
 20
-705.1882353557246
 10
1989.286692935133
 20
-705.8235294733715
 10
1989.333751758662
 20
-706.4588235910187
  0
LWPOLYLINE
  5
3592
330
2
100
AcDbEntity
  8
0
 62
   255
370
    -3
100
AcDbPolyline
 90
       51
 70
     0
 43
0.0
 10
1979.192575288074
 20
-706.4588235910187
 10
1979.216104699838
 20
-705.8000000616068
 10
1979.357281170427
 20
-705.1647059439598
 10
1979.545516464544
 20
-704.5529412380775
 10
1979.827869405721
 20
-703.9647059439597
 10
1980.180810582191
 20
-703.4235294733718
 10
1980.580810582192
 20
-702.9294118263127
 10
1981.051398817486
 20
-702.4823530027831
 10
1981.592575288074
 20
-702.1058824145482
 10
1982.157281170427
 20
-701.8000000616068
 10
1982.745516464544
 20
-701.5647059439597
 10
1983.380810582191
 20
-701.400000061607
 10
1984.016104699838
 20
-701.3294118263127
 10
1984.651398817485
 20
-701.3294118263127
 10
1985.286692935133
 20
-701.400000061607
 10
1985.92198705278
 20
-701.5647059439597
 10
1986.533751758662
 20
-701.8000000616068
 10
1987.098457641015
 20
-702.1058824145482
 10
1987.616104699839
 20
-702.4823530027831
 10
1988.086692935133
 20
-702.9294118263127
 10
1988.510222346898
 20
-703.4235294733718
 10
1988.863163523368
 20
-703.9647059439597
 10
1989.12198705278
 20
-704.5529412380775
 10
1989.333751758662
 20
-705.1647059439598
 10
1989.451398817486
 20
-705.8000000616068
 10
1989.498457641015
 20
-706.4588235910187
 10
1989.451398817486
 20
-707.1176471204304
 10
1989.333751758662
 20
-707.7529412380775
 10
1989.12198705278
 20
-708.3411765321951
 10
1988.863163523368
 20
-708.9529412380775
 10
1988.510222346898
 20
-709.4705882969009
 10
1988.086692935133
 20
-709.9882353557244
 10
1987.616104699839
 20
-710.435294179254
 10
1987.098457641015
 20
-710.8117647674893
 10
1986.533751758662
 20
-711.1176471204304
 10
1985.92198705278
 20
-711.3529412380775
 10
1985.286692935133
 20
-711.5176471204303
 10
1984.651398817485
 20
-711.5882353557244
 10
1984.016104699838
 20
-711.5882353557244
 10
1983.380810582191
 20
-711.5176471204303
 10
1982.745516464544
 20
-711.3529412380775
 10
1982.157281170427
 20
-711.1176471204304
 10
1981.592575288074
 20
-710.8117647674893
 10
1981.051398817486
 20
-710.435294179254
 10
1980.580810582192
 20
-709.9882353557244
 10
1980.180810582191
 20
-709.4705882969009
 10
1979.827869405721
 20
-708.9529412380775
 10
1979.545516464544
 20
-708.3411765321951
 10
1979.357281170427
 20
-707.7529412380775
 10
1979.216104699838
 20
-707.1176471204304
 10
1979.192575288074
 20
-706.4588235910187
  0
LWPOLYLINE
  5
3593
330
2
100
AcDbEntity
  8
0
 62
   255
370
    -3
100
AcDbPolyline
 90
       63
 70
     0
 43
0.0
 10
1992.345516464544
 20
-706.4588235910187
 10
1992.298457641015
 20
-707.2588235910187
 10
1992.180810582192
 20
-708.0588235910187
 10
1991.969045876309
 20
-708.8588235910187
 10
1991.686692935132
 20
-709.6117647674892
 10
1991.333751758662
 20
-710.3411765321951
 10
1990.910222346897
 20
-711.0235294733715
 10
1990.416104699838
 20
-711.6588235910186
 10
1989.851398817486
 20
-712.2705882969009
 10
1989.239634111603
 20
-712.7882353557246
 10
1988.580810582191
 20
-713.2588235910186
 10
1987.87492822925
 20
-713.6352941792539
 10
1987.12198705278
 20
-713.9647059439597
 10
1986.345516464544
 20
-714.2000000616069
 10
1985.545516464544
 20
-714.3647059439598
 10
1984.745516464544
 20
-714.4588235910187
 10
1983.92198705278
 20
-714.4588235910187
 10
1983.12198705278
 20
-714.3647059439598
 10
1982.321987052779
 20
-714.2000000616069
 10
1981.545516464544
 20
-713.9647059439597
 10
1980.816104699838
 20
-713.6352941792539
 10
1980.110222346897
 20
-713.2588235910186
 10
1979.427869405721
 20
-712.7882353557246
 10
1978.816104699838
 20
-712.2705882969009
 10
1978.27492822925
 20
-711.6588235910186
 10
1977.780810582191
 20
-711.0235294733715
 10
1977.333751758662
 20
-710.3411765321951
 10
1976.980810582191
 20
-709.6117647674892
 10
1976.698457641015
 20
-708.8588235910187
 10
1976.510222346897
 20
-708.0588235910187
 10
1976.369045876309
 20
-707.2588235910187
 10
1976.32198705278
 20
-706.4588235910187
 10
1976.369045876309
 20
-705.6352941792539
 10
1976.510222346897
 20
-704.8588235910187
 10
1976.698457641015
 20
-704.0588235910187
 10
1976.980810582191
 20
-703.3058824145481
 10
1977.333751758662
 20
-702.5764706498422
 10
1977.780810582191
 20
-701.8941177086658
 10
1978.27492822925
 20
-701.2588235910186
 10
1978.816104699838
 20
-700.6470588851364
 10
1979.427869405721
 20
-700.1294118263126
 10
1980.110222346897
 20
-699.6588235910186
 10
1980.816104699838
 20
-699.2823530027833
 10
1981.545516464544
 20
-698.9529412380775
 10
1982.321987052779
 20
-698.7176471204304
 10
1983.12198705278
 20
-698.5294118263127
 10
1983.92198705278
 20
-698.4588235910186
 10
1984.745516464544
 20
-698.4588235910186
 10
1985.545516464544
 20
-698.5294118263127
 10
1986.345516464544
 20
-698.7176471204304
 10
1987.12198705278
 20
-698.9529412380775
 10
1987.87492822925
 20
-699.2823530027833
 10
1988.580810582191
 20
-699.6588235910186
 10
1989.239634111603
 20
-700.1294118263126
 10
1989.851398817486
 20
-700.6470588851364
 10
1990.416104699838
 20
-701.2588235910186
 10
1990.910222346897
 20
-701.8941177086658
 10
1991.333751758662
 20
-702.5764706498422
 10
1991.686692935132
 20
-703.3058824145481
 10
1991.969045876309
 20
-704.0588235910187
 10
1992.180810582192
 20
-704.8588235910187
 10
1992.298457641015
 20
-705.6352941792539
 10
1992.345516464544
 20
-706.4588235910187
  0
LWPOLYLINE
  5
359A
330
2
100
AcDbEntity
  8
0
 62
   255
370
    -3
100
AcDbPolyline
 90
        2
 70
     0
 43
0.0
 10
1976.604339993956
 20
-704.3882353557246
 10
1976.416104699838
 20
-704.3176471204304
  0
LWPOLYLINE
  5
359B
330
2
100
AcDbEntity
  8
0
 62
   255
370
    -3
100
AcDbPolyline
 90
        6
 70
     0
 43
0.0
 10
1976.416104699838
 20
-704.3176471204304
 10
1976.439634111603
 20
-704.2941177086658
 10
1976.463163523368
 20
-704.1058824145482
 10
1976.533751758662
 20
-703.8941177086658
 10
1976.651398817486
 20
-703.5882353557244
 10
1976.721987052779
 20
-703.3764706498422
  0
LWPOLYLINE
  5
359C
330
2
100
AcDbEntity
  8
0
 62
   255
370
    -3
100
AcDbPolyline
 90
        2
 70
     0
 43
0.0
 10
1976.721987052779
 20
-703.3764706498422
 10
1976.933751758662
 20
-703.4470588851363
  0
LWPOLYLINE
  5
359D
330
2
100
AcDbEntity
  8
0
 62
   255
370
    -3
100
AcDbPolyline
 90
        2
 70
     0
 43
0.0
 10
1992.251398817486
 20
-704.3176471204304
 10
1992.063163523368
 20
-704.3882353557246
  0
LWPOLYLINE
  5
359E
330
2
100
AcDbEntity
  8
0
 62
   255
370
    -3
100
AcDbPolyline
 90
        2
 70
     0
 43
0.0
 10
1991.757281170427
 20
-703.4470588851363
 10
1991.945516464544
 20
-703.3764706498422
  0
LWPOLYLINE
  5
359F
330
2
100
AcDbEntity
  8
0
 62
   255
370
    -3
100
AcDbPolyline
 90
        6
 70
     0
 43
0.0
 10
1991.945516464544
 20
-703.3764706498422
 10
1992.063163523368
 20
-703.6823530027833
 10
1992.157281170427
 20
-703.9647059439597
 10
1992.204339993956
 20
-704.1764706498423
 10
1992.251398817486
 20
-704.3176471204304
 10
1992.251398817486
 20
-704.3176471204304
  0
LWPOLYLINE
  5
35A0
330
2
100
AcDbEntity
  8
0
 62
   255
370
    -3
100
AcDbPolyline
 90
       24
 70
     0
 43
0.0
 10
1976.721987052779
 20
-703.3764706498422
 10
1977.098457641015
 20
-702.6235294733717
 10
1977.52198705278
 20
-701.8941177086658
 10
1978.016104699839
 20
-701.2117647674893
 10
1978.604339993956
 20
-700.5764706498422
 10
1979.239634111603
 20
-700.035294179254
 10
1979.921987052779
 20
-699.5411765321953
 10
1980.67492822925
 20
-699.1176471204304
 10
1981.451398817486
 20
-698.7882353557246
 10
1982.251398817486
 20
-698.5294118263127
 10
1983.07492822925
 20
-698.3647059439598
 10
1983.92198705278
 20
-698.2470588851363
 10
1984.769045876309
 20
-698.2470588851363
 10
1985.616104699839
 20
-698.3647059439598
 10
1986.416104699839
 20
-698.5294118263127
 10
1987.239634111603
 20
-698.7882353557246
 10
1988.016104699839
 20
-699.1176471204304
 10
1988.745516464544
 20
-699.5411765321953
 10
1989.427869405721
 20
-700.035294179254
 10
1990.063163523368
 20
-700.5764706498422
 10
1990.651398817486
 20
-701.2117647674893
 10
1991.145516464544
 20
-701.8941177086658
 10
1991.592575288074
 20
-702.6235294733717
 10
1991.945516464544
 20
-703.3764706498422
  0
LWPOLYLINE
  5
35A1
330
2
100
AcDbEntity
  8
0
 62
     2
370
    -3
100
AcDbPolyline
 90
       26
 70
     0
 43
0.0
 10
1983.004339993956
 20
-706.4588235910187
 10
1983.051398817486
 20
-706.7882353557246
 10
1983.169045876309
 20
-707.0941177086657
 10
1983.380810582191
 20
-707.3529412380777
 10
1983.639634111603
 20
-707.5647059439598
 10
1983.92198705278
 20
-707.7058824145482
 10
1984.251398817486
 20
-707.776470649842
 10
1984.580810582192
 20
-707.7529412380775
 10
1984.910222346897
 20
-707.6588235910186
 10
1985.192575288074
 20
-707.4705882969009
 10
1985.404339993956
 20
-707.2352941792538
 10
1985.569045876309
 20
-706.9294118263127
 10
1985.639634111603
 20
-706.6235294733717
 10
1985.639634111603
 20
-706.2941177086657
 10
1985.569045876309
 20
-705.9647059439598
 10
1985.404339993956
 20
-705.6823530027833
 10
1985.192575288074
 20
-705.4235294733715
 10
1984.910222346897
 20
-705.2588235910186
 10
1984.580810582192
 20
-705.1411765321952
 10
1984.251398817486
 20
-705.1411765321952
 10
1983.92198705278
 20
-705.1882353557246
 10
1983.639634111603
 20
-705.3294118263127
 10
1983.380810582191
 20
-705.5411765321951
 10
1983.169045876309
 20
-705.8235294733715
 10
1983.051398817486
 20
-706.1294118263129
 10
1983.004339993956
 20
-706.4588235910187
  0
LWPOLYLINE
  5
35A2
330
2
100
AcDbEntity
  8
0
 62
   255
370
    -3
100
AcDbPolyline
 90
       27
 70
     0
 43
0.0
 10
1982.839634111603
 20
-706.4588235910187
 10
1982.886692935133
 20
-706.0823530027834
 10
1983.004339993956
 20
-705.7529412380773
 10
1983.216104699838
 20
-705.4470588851362
 10
1983.498457641015
 20
-705.2117647674893
 10
1983.804339993956
 20
-705.0470588851363
 10
1984.157281170427
 20
-704.9529412380775
 10
1984.510222346898
 20
-704.9529412380775
 10
1984.863163523368
 20
-705.0470588851363
 10
1985.192575288074
 20
-705.2117647674893
 10
1985.47492822925
 20
-705.4470588851362
 10
1985.663163523368
 20
-705.7529412380773
 10
1985.780810582191
 20
-706.0823530027834
 10
1985.827869405721
 20
-706.4588235910187
 10
1985.780810582191
 20
-706.8117647674893
 10
1985.663163523368
 20
-707.1411765321952
 10
1985.47492822925
 20
-707.4470588851362
 10
1985.192575288074
 20
-707.6823530027833
 10
1984.863163523368
 20
-707.8470588851362
 10
1984.510222346898
 20
-707.9411765321951
 10
1984.157281170427
 20
-707.9411765321951
 10
1983.804339993956
 20
-707.8470588851362
 10
1983.498457641015
 20
-707.6823530027833
 10
1983.216104699838
 20
-707.4470588851362
 10
1983.004339993956
 20
-707.1411765321952
 10
1982.886692935133
 20
-706.8117647674893
 10
1982.839634111603
 20
-706.4588235910187
  0
LWPOLYLINE
  5
35A3
330
2
100
AcDbEntity
  8
0
 62
   255
370
    -3
100
AcDbPolyline
 90
       32
 70
     0
 43
0.0
 10
1982.321987052779
 20
-706.4588235910187
 10
1982.369045876309
 20
-706.8588235910186
 10
1982.510222346897
 20
-707.2588235910187
 10
1982.698457641015
 20
-707.6117647674892
 10
1982.957281170427
 20
-707.9176471204305
 10
1983.286692935133
 20
-708.1529412380775
 10
1983.639634111603
 20
-708.3411765321951
 10
1984.039634111603
 20
-708.4352941792539
 10
1984.439634111603
 20
-708.4588235910187
 10
1984.839634111603
 20
-708.3882353557246
 10
1985.216104699838
 20
-708.2470588851363
 10
1985.569045876309
 20
-708.035294179254
 10
1985.851398817485
 20
-707.7529412380775
 10
1986.086692935133
 20
-707.4235294733718
 10
1986.251398817486
 20
-707.0470588851364
 10
1986.32198705278
 20
-706.6470588851363
 10
1986.32198705278
 20
-706.2470588851363
 10
1986.251398817486
 20
-705.8470588851362
 10
1986.086692935133
 20
-705.4941177086657
 10
1985.851398817485
 20
-705.1647059439598
 10
1985.569045876309
 20
-704.8823530027833
 10
1985.216104699838
 20
-704.6705882969011
 10
1984.839634111603
 20
-704.5294118263129
 10
1984.439634111603
 20
-704.4588235910187
 10
1984.039634111603
 20
-704.4823530027834
 10
1983.639634111603
 20
-704.5764706498422
 10
1983.286692935133
 20
-704.7647059439598
 10
1982.957281170427
 20
-705.0000000616067
 10
1982.698457641015
 20
-705.3058824145481
 10
1982.510222346897
 20
-705.6588235910186
 10
1982.369045876309
 20
-706.0588235910187
 10
1982.321987052779
 20
-706.4588235910187
  0
LWPOLYLINE
  5
35A4
330
2
100
AcDbEntity
  8
0
 62
   255
370
    -3
100
AcDbPolyline
 90
       30
 70
     0
 43
0.0
 10
1982.533751758662
 20
-706.4588235910187
 10
1982.580810582192
 20
-706.0588235910187
 10
1982.698457641015
 20
-705.7058824145482
 10
1982.910222346897
 20
-705.3764706498421
 10
1983.169045876309
 20
-705.0941177086657
 10
1983.498457641015
 20
-704.8588235910187
 10
1983.851398817486
 20
-704.7176471204304
 10
1984.227869405721
 20
-704.6470588851364
 10
1984.627869405721
 20
-704.6705882969011
 10
1985.004339993956
 20
-704.7882353557246
 10
1985.357281170427
 20
-704.9529412380775
 10
1985.639634111603
 20
-705.2117647674893
 10
1985.87492822925
 20
-705.5176471204304
 10
1986.039634111603
 20
-705.8705882969011
 10
1986.133751758662
 20
-706.270588296901
 10
1986.133751758662
 20
-706.6470588851363
 10
1986.039634111603
 20
-707.0470588851364
 10
1985.87492822925
 20
-707.4000000616068
 10
1985.639634111603
 20
-707.7058824145482
 10
1985.357281170427
 20
-707.9411765321951
 10
1985.004339993956
 20
-708.1294118263127
 10
1984.627869405721
 20
-708.2470588851363
 10
1984.227869405721
 20
-708.2470588851363
 10
1983.851398817486
 20
-708.2000000616069
 10
1983.498457641015
 20
-708.0588235910187
 10
1983.169045876309
 20
-707.8235294733715
 10
1982.910222346897
 20
-707.5411765321953
 10
1982.698457641015
 20
-707.2117647674892
 10
1982.580810582192
 20
-706.8352941792539
 10
1982.533751758662
 20
-706.4588235910187
  0
LWPOLYLINE
  5
35A5
330
2
100
AcDbEntity
  8
0
 62
   255
370
    -3
100
AcDbPolyline
 90
       34
 70
     0
 43
0.0
 10
1982.039634111603
 20
-706.4588235910187
 10
1982.086692935133
 20
-706.0117647674893
 10
1982.204339993956
 20
-705.5882353557247
 10
1982.392575288074
 20
-705.2117647674893
 10
1982.67492822925
 20
-704.8588235910187
 10
1983.004339993956
 20
-704.5764706498422
 10
1983.380810582191
 20
-704.3647059439599
 10
1983.804339993956
 20
-704.2235294733716
 10
1984.227869405721
 20
-704.1529412380775
 10
1984.651398817485
 20
-704.1764706498423
 10
1985.07492822925
 20
-704.2941177086658
 10
1985.498457641015
 20
-704.4588235910187
 10
1985.851398817485
 20
-704.7176471204304
 10
1986.133751758662
 20
-705.0235294733716
 10
1986.392575288074
 20
-705.4000000616071
 10
1986.533751758662
 20
-705.8000000616068
 10
1986.627869405721
 20
-706.2235294733716
 10
1986.627869405721
 20
-706.6705882969009
 10
1986.533751758662
 20
-707.1176471204304
 10
1986.392575288074
 20
-707.5176471204303
 10
1986.133751758662
 20
-707.8941177086658
 10
1985.851398817485
 20
-708.2000000616069
 10
1985.498457641015
 20
-708.4588235910187
 10
1985.07492822925
 20
-708.6235294733717
 10
1984.651398817485
 20
-708.7411765321951
 10
1984.227869405721
 20
-708.7647059439598
 10
1983.804339993956
 20
-708.6941177086657
 10
1983.380810582191
 20
-708.5529412380775
 10
1983.004339993956
 20
-708.3411765321951
 10
1982.67492822925
 20
-708.035294179254
 10
1982.392575288074
 20
-707.7058824145482
 10
1982.204339993956
 20
-707.3058824145481
 10
1982.086692935133
 20
-706.9058824145481
 10
1982.039634111603
 20
-706.4588235910187
  0
LWPOLYLINE
  5
35A6
330
2
100
AcDbEntity
  8
0
 62
   255
370
    -3
100
AcDbPolyline
 90
       32
 70
     0
 43
0.0
 10
1982.321987052779
 20
-706.4588235910187
 10
1982.369045876309
 20
-706.8588235910186
 10
1982.510222346897
 20
-707.2588235910187
 10
1982.698457641015
 20
-707.6117647674892
 10
1982.957281170427
 20
-707.9176471204305
 10
1983.286692935133
 20
-708.1529412380775
 10
1983.639634111603
 20
-708.3411765321951
 10
1984.039634111603
 20
-708.4352941792539
 10
1984.439634111603
 20
-708.4588235910187
 10
1984.839634111603
 20
-708.3882353557246
 10
1985.216104699838
 20
-708.2470588851363
 10
1985.569045876309
 20
-708.035294179254
 10
1985.851398817485
 20
-707.7529412380775
 10
1986.086692935133
 20
-707.4235294733718
 10
1986.251398817486
 20
-707.0470588851364
 10
1986.32198705278
 20
-706.6470588851363
 10
1986.32198705278
 20
-706.2470588851363
 10
1986.251398817486
 20
-705.8470588851362
 10
1986.086692935133
 20
-705.4941177086657
 10
1985.851398817485
 20
-705.1647059439598
 10
1985.569045876309
 20
-704.8823530027833
 10
1985.216104699838
 20
-704.6705882969011
 10
1984.839634111603
 20
-704.5294118263129
 10
1984.439634111603
 20
-704.4588235910187
 10
1984.039634111603
 20
-704.4823530027834
 10
1983.639634111603
 20
-704.5764706498422
 10
1983.286692935133
 20
-704.7647059439598
 10
1982.957281170427
 20
-705.0000000616067
 10
1982.698457641015
 20
-705.3058824145481
 10
1982.510222346897
 20
-705.6588235910186
 10
1982.369045876309
 20
-706.0588235910187
 10
1982.321987052779
 20
-706.4588235910187
  0
LWPOLYLINE
  5
35A7
330
2
100
AcDbEntity
  8
0
 62
   255
370
    -3
100
AcDbPolyline
 90
       30
 70
     0
 43
0.0
 10
1982.533751758662
 20
-706.4588235910187
 10
1982.580810582192
 20
-706.0588235910187
 10
1982.698457641015
 20
-705.7058824145482
 10
1982.910222346897
 20
-705.3764706498421
 10
1983.169045876309
 20
-705.0941177086657
 10
1983.498457641015
 20
-704.8588235910187
 10
1983.851398817486
 20
-704.7176471204304
 10
1984.227869405721
 20
-704.6470588851364
 10
1984.627869405721
 20
-704.6705882969011
 10
1985.004339993956
 20
-704.7882353557246
 10
1985.357281170427
 20
-704.9529412380775
 10
1985.639634111603
 20
-705.2117647674893
 10
1985.87492822925
 20
-705.5176471204304
 10
1986.039634111603
 20
-705.8705882969011
 10
1986.133751758662
 20
-706.270588296901
 10
1986.133751758662
 20
-706.6470588851363
 10
1986.039634111603
 20
-707.0470588851364
 10
1985.87492822925
 20
-707.4000000616068
 10
1985.639634111603
 20
-707.7058824145482
 10
1985.357281170427
 20
-707.9411765321951
 10
1985.004339993956
 20
-708.1294118263127
 10
1984.627869405721
 20
-708.2470588851363
 10
1984.227869405721
 20
-708.2470588851363
 10
1983.851398817486
 20
-708.2000000616069
 10
1983.498457641015
 20
-708.0588235910187
 10
1983.169045876309
 20
-707.8235294733715
 10
1982.910222346897
 20
-707.5411765321953
 10
1982.698457641015
 20
-707.2117647674892
 10
1982.580810582192
 20
-706.8352941792539
 10
1982.533751758662
 20
-706.4588235910187
  0
LWPOLYLINE
  5
35A8
330
2
100
AcDbEntity
  8
0
 62
   255
370
    -3
100
AcDbPolyline
 90
       34
 70
     0
 43
0.0
 10
1982.039634111603
 20
-706.4588235910187
 10
1982.086692935133
 20
-706.0117647674893
 10
1982.204339993956
 20
-705.5882353557247
 10
1982.392575288074
 20
-705.2117647674893
 10
1982.67492822925
 20
-704.8588235910187
 10
1983.004339993956
 20
-704.5764706498422
 10
1983.380810582191
 20
-704.3647059439599
 10
1983.804339993956
 20
-704.2235294733716
 10
1984.227869405721
 20
-704.1529412380775
 10
1984.651398817485
 20
-704.1764706498423
 10
1985.07492822925
 20
-704.2941177086658
 10
1985.498457641015
 20
-704.4588235910187
 10
1985.851398817485
 20
-704.7176471204304
 10
1986.133751758662
 20
-705.0235294733716
 10
1986.392575288074
 20
-705.4000000616071
 10
1986.533751758662
 20
-705.8000000616068
 10
1986.627869405721
 20
-706.2235294733716
 10
1986.627869405721
 20
-706.6705882969009
 10
1986.533751758662
 20
-707.1176471204304
 10
1986.392575288074
 20
-707.5176471204303
 10
1986.133751758662
 20
-707.8941177086658
 10
1985.851398817485
 20
-708.2000000616069
 10
1985.498457641015
 20
-708.4588235910187
 10
1985.07492822925
 20
-708.6235294733717
 10
1984.651398817485
 20
-708.7411765321951
 10
1984.227869405721
 20
-708.7647059439598
 10
1983.804339993956
 20
-708.6941177086657
 10
1983.380810582191
 20
-708.5529412380775
 10
1983.004339993956
 20
-708.3411765321951
 10
1982.67492822925
 20
-708.035294179254
 10
1982.392575288074
 20
-707.7058824145482
 10
1982.204339993956
 20
-707.3058824145481
 10
1982.086692935133
 20
-706.9058824145481
 10
1982.039634111603
 20
-706.4588235910187
  0
LWPOLYLINE
  5
35A9
330
2
100
AcDbEntity
  8
0
 62
   255
370
    -3
100
AcDbPolyline
 90
        4
 70
     0
 43
0.0
 10
2118.588234561705
 20
-708.8823530027833
 10
2118.588234561705
 20
-708.835294179254
 10
2118.517646326411
 20
-708.6470588851364
 10
2118.494116914646
 20
-708.6000000616069
  0
LWPOLYLINE
  5
35AA
330
2
100
AcDbEntity
  8
0
 62
   255
370
    -3
100
AcDbPolyline
 90
        3
 70
     0
 43
0.0
 10
2117.505881620528
 20
-708.6000000616069
 10
2117.435293385234
 20
-708.7411765321951
 10
2117.411763973469
 20
-708.8823530027833
  0
LWPOLYLINE
  5
35AB
330
2
100
AcDbEntity
  8
0
 62
   255
370
    -3
100
AcDbPolyline
 90
        3
 70
     0
 43
0.0
 10
2116.188234561705
 20
-708.1764706498423
 10
2116.258822796999
 20
-708.1294118263127
 10
2116.376469855822
 20
-707.9647059439597
  0
LWPOLYLINE
  5
35AC
330
2
100
AcDbEntity
  8
0
 62
   255
370
    -3
100
AcDbPolyline
 90
        3
 70
     0
 43
0.0
 10
2115.905881620529
 20
-707.1176471204304
 10
2115.694116914646
 20
-707.1176471204304
 10
2115.599999267587
 20
-707.1411765321952
  0
LWPOLYLINE
  5
35AD
330
2
100
AcDbEntity
  8
0
 62
   255
370
    -3
100
AcDbPolyline
 90
        3
 70
     0
 43
0.0
 10
2115.599999267587
 20
-705.7529412380773
 10
2115.694116914646
 20
-705.7764706498422
 10
2115.905881620529
 20
-705.8000000616068
  0
LWPOLYLINE
  5
35AE
330
2
100
AcDbEntity
  8
0
 62
   255
370
    -3
100
AcDbPolyline
 90
        3
 70
     0
 43
0.0
 10
2116.376469855822
 20
-704.9529412380775
 10
2116.258822796999
 20
-704.7882353557246
 10
2116.188234561705
 20
-704.7176471204304
  0
LWPOLYLINE
  5
35AF
330
2
100
AcDbEntity
  8
0
 62
   255
370
    -3
100
AcDbPolyline
 90
        4
 70
     0
 43
0.0
 10
2117.411763973469
 20
-704.0352941792538
 10
2117.411763973469
 20
-704.0588235910187
 10
2117.505881620528
 20
-704.2705882969009
 10
2117.505881620528
 20
-704.3176471204304
  0
LWPOLYLINE
  5
35B0
330
2
100
AcDbEntity
  8
0
 62
   255
370
    -3
100
AcDbPolyline
 90
        3
 70
     0
 43
0.0
 10
2118.494116914646
 20
-704.3176471204304
 10
2118.56470514994
 20
-704.1764706498423
 10
2118.588234561705
 20
-704.0352941792538
  0
LWPOLYLINE
  5
35B1
330
2
100
AcDbEntity
  8
0
 62
   255
370
    -3
100
AcDbPolyline
 90
        3
 70
     0
 43
0.0
 10
2119.81176397347
 20
-704.7176471204304
 10
2119.741175738175
 20
-704.7882353557246
 10
2119.623528679352
 20
-704.9529412380775
  0
LWPOLYLINE
  5
35B2
330
2
100
AcDbEntity
  8
0
 62
   255
370
    -3
100
AcDbPolyline
 90
        3
 70
     0
 43
0.0
 10
2120.117646326411
 20
-705.8000000616068
 10
2120.329411032293
 20
-705.7764706498422
 10
2120.399999267587
 20
-705.7529412380773
  0
LWPOLYLINE
  5
35B3
330
2
100
AcDbEntity
  8
0
 62
   255
370
    -3
100
AcDbPolyline
 90
        3
 70
     0
 43
0.0
 10
2120.399999267587
 20
-707.1411765321952
 10
2120.329411032293
 20
-707.1176471204304
 10
2120.117646326411
 20
-707.1176471204304
  0
LWPOLYLINE
  5
35B4
330
2
100
AcDbEntity
  8
0
 62
   255
370
    -3
100
AcDbPolyline
 90
        3
 70
     0
 43
0.0
 10
2119.623528679352
 20
-707.9647059439597
 10
2119.741175738175
 20
-708.1294118263127
 10
2119.81176397347
 20
-708.1764706498423
  0
LWPOLYLINE
  5
35B5
330
2
100
AcDbEntity
  8
0
 62
   255
370
    -3
100
AcDbPolyline
 90
        2
 70
     0
 43
0.0
 10
2110.399999267587
 20
-703.3764706498422
 10
2110.588234561705
 20
-703.4470588851363
  0
LWPOLYLINE
  5
35B6
330
2
100
AcDbEntity
  8
0
 62
   255
370
    -3
100
AcDbPolyline
 90
        2
 70
     0
 43
0.0
 10
2110.258822796999
 20
-704.3882353557246
 10
2110.070587502882
 20
-704.3176471204304
  0
LWPOLYLINE
  5
35B7
330
2
100
AcDbEntity
  8
0
 62
   255
370
    -3
100
AcDbPolyline
 90
       18
 70
     0
 43
0.0
 10
2110.070587502882
 20
-704.3176471204304
 10
2110.070587502882
 20
-704.3176471204304
 10
2110.094116914646
 20
-704.3176471204304
 10
2110.094116914646
 20
-704.2941177086658
 10
2110.094116914646
 20
-704.2941177086658
 10
2110.094116914646
 20
-704.2470588851363
 10
2110.117646326411
 20
-704.2235294733716
 10
2110.117646326411
 20
-704.1764706498423
 10
2110.141175738176
 20
-704.1058824145482
 10
2110.141175738176
 20
-704.0823530027834
 10
2110.164705149941
 20
-704.0117647674893
 10
2110.188234561705
 20
-703.9411765321951
 10
2110.21176397347
 20
-703.8941177086658
 10
2110.235293385235
 20
-703.8235294733715
 10
2110.282352208765
 20
-703.6588235910186
 10
2110.305881620528
 20
-703.5882353557244
 10
2110.352940444058
 20
-703.4941177086657
 10
2110.399999267587
 20
-703.3764706498422
  0
LWPOLYLINE
  5
35B8
330
2
100
AcDbEntity
  8
0
 62
   255
370
    -3
100
AcDbPolyline
 90
        2
 70
     0
 43
0.0
 10
2125.411763973469
 20
-703.4470588851363
 10
2125.623528679352
 20
-703.3764706498422
  0
LWPOLYLINE
  5
35B9
330
2
100
AcDbEntity
  8
0
 62
   255
370
    -3
100
AcDbPolyline
 90
        2
 70
     0
 43
0.0
 10
2125.929411032293
 20
-704.3176471204304
 10
2125.717646326411
 20
-704.3882353557246
  0
LWPOLYLINE
  5
35BA
330
2
100
AcDbEntity
  8
0
 62
   255
370
    -3
100
AcDbPolyline
 90
       16
 70
     0
 43
0.0
 10
2125.623528679352
 20
-703.3764706498422
 10
2125.647058091117
 20
-703.4705882969009
 10
2125.670587502881
 20
-703.5411765321953
 10
2125.694116914646
 20
-703.6117647674892
 10
2125.717646326411
 20
-703.6823530027833
 10
2125.741175738176
 20
-703.7294118263126
 10
2125.76470514994
 20
-703.8235294733715
 10
2125.788234561705
 20
-703.8941177086658
 10
2125.835293385234
 20
-703.9647059439597
 10
2125.835293385234
 20
-704.0352941792538
 10
2125.858822796999
 20
-704.1058824145482
 10
2125.882352208764
 20
-704.1764706498423
 10
2125.905881620528
 20
-704.2235294733716
 10
2125.905881620528
 20
-704.2705882969009
 10
2125.929411032293
 20
-704.3176471204304
 10
2125.929411032293
 20
-704.3176471204304
  0
LWPOLYLINE
  5
35BB
330
2
100
AcDbEntity
  8
0
 62
   255
370
    -3
100
AcDbPolyline
 90
       24
 70
     0
 43
0.0
 10
2125.623528679352
 20
-703.3764706498422
 10
2125.247058091117
 20
-702.6235294733717
 10
2124.799999267587
 20
-701.8941177086658
 10
2124.305881620529
 20
-701.2117647674893
 10
2123.741175738176
 20
-700.5764706498422
 10
2123.105881620529
 20
-700.035294179254
 10
2122.399999267587
 20
-699.5411765321953
 10
2121.670587502881
 20
-699.1176471204304
 10
2120.894116914646
 20
-698.7882353557246
 10
2120.094116914646
 20
-698.5294118263127
 10
2119.270587502882
 20
-698.3647059439598
 10
2118.423528679352
 20
-698.2470588851363
 10
2117.576469855822
 20
-698.2470588851363
 10
2116.729411032293
 20
-698.3647059439598
 10
2115.905881620529
 20
-698.5294118263127
 10
2115.105881620529
 20
-698.7882353557246
 10
2114.329411032293
 20
-699.1176471204304
 10
2113.576469855822
 20
-699.5411765321953
 10
2112.917646326411
 20
-700.035294179254
 10
2112.282352208764
 20
-700.5764706498422
 10
2111.694116914646
 20
-701.2117647674893
 10
2111.176469855823
 20
-701.8941177086658
 10
2110.752940444058
 20
-702.6235294733717
 10
2110.399999267587
 20
-703.3764706498422
  0
LWPOLYLINE
  5
35BC
330
2
100
AcDbEntity
  8
0
 62
   255
370
    -3
100
AcDbPolyline
 90
       27
 70
     0
 43
0.0
 10
2117.999999267587
 20
-707.9647059439597
 10
2117.647058091117
 20
-707.9176471204305
 10
2117.294116914646
 20
-707.776470649842
 10
2117.01176397347
 20
-707.5647059439598
 10
2116.752940444058
 20
-707.3058824145481
 10
2116.588234561705
 20
-707.0000000616069
 10
2116.517646326411
 20
-706.6470588851363
 10
2116.517646326411
 20
-706.270588296901
 10
2116.588234561705
 20
-705.9176471204304
 10
2116.752940444058
 20
-705.5882353557247
 10
2117.01176397347
 20
-705.3294118263127
 10
2117.294116914646
 20
-705.1411765321952
 10
2117.647058091117
 20
-705.0000000616067
 10
2117.999999267587
 20
-704.9529412380775
 10
2118.352940444058
 20
-705.0000000616067
 10
2118.705881620529
 20
-705.1411765321952
 10
2118.988234561705
 20
-705.3294118263127
 10
2119.223528679352
 20
-705.5882353557247
 10
2119.41176397347
 20
-705.9176471204304
 10
2119.482352208764
 20
-706.270588296901
 10
2119.482352208764
 20
-706.6470588851363
 10
2119.41176397347
 20
-707.0000000616069
 10
2119.223528679352
 20
-707.3058824145481
 10
2118.988234561705
 20
-707.5647059439598
 10
2118.705881620529
 20
-707.776470649842
 10
2118.352940444058
 20
-707.9176471204305
 10
2117.999999267587
 20
-707.9647059439597
  0
LWPOLYLINE
  5
35BD
330
2
100
AcDbEntity
  8
0
 62
   255
370
    -3
100
AcDbPolyline
 90
       32
 70
     0
 43
0.0
 10
2117.999999267587
 20
-704.4588235910187
 10
2117.599999267587
 20
-704.505882414548
 10
2117.223528679352
 20
-704.6235294733717
 10
2116.870587502881
 20
-704.8117647674892
 10
2116.541175738175
 20
-705.0705882969009
 10
2116.305881620529
 20
-705.4000000616071
 10
2116.117646326411
 20
-705.7764706498422
 10
2116.023528679352
 20
-706.1529412380775
 10
2115.999999267587
 20
-706.5529412380775
 10
2116.070587502882
 20
-706.9529412380775
 10
2116.21176397347
 20
-707.3294118263127
 10
2116.423528679352
 20
-707.6823530027833
 10
2116.682352208764
 20
-707.9647059439597
 10
2117.035293385234
 20
-708.2000000616069
 10
2117.388234561705
 20
-708.3647059439599
 10
2117.788234561705
 20
-708.4588235910187
 10
2118.21176397347
 20
-708.4588235910187
 10
2118.588234561705
 20
-708.3647059439599
 10
2118.988234561705
 20
-708.2000000616069
 10
2119.294116914646
 20
-707.9647059439597
 10
2119.576469855823
 20
-707.6823530027833
 10
2119.788234561705
 20
-707.3294118263127
 10
2119.929411032293
 20
-706.9529412380775
 10
2119.999999267587
 20
-706.5529412380775
 10
2119.976469855822
 20
-706.1529412380775
 10
2119.882352208763
 20
-705.7764706498422
 10
2119.694116914646
 20
-705.4000000616071
 10
2119.458822796999
 20
-705.0705882969009
 10
2119.152940444058
 20
-704.8117647674892
 10
2118.799999267587
 20
-704.6235294733717
 10
2118.399999267587
 20
-704.505882414548
 10
2117.999999267587
 20
-704.4588235910187
  0
LWPOLYLINE
  5
35BE
330
2
100
AcDbEntity
  8
0
 62
   255
370
    -3
100
AcDbPolyline
 90
       33
 70
     0
 43
0.0
 10
2117.999999267587
 20
-704.2470588851363
 10
2118.423528679352
 20
-704.2941177086658
 10
2118.847058091117
 20
-704.4352941792539
 10
2119.223528679352
 20
-704.6235294733717
 10
2119.552940444058
 20
-704.9058824145482
 10
2119.835293385234
 20
-705.2352941792539
 10
2120.047058091117
 20
-705.6117647674892
 10
2120.164705149941
 20
-706.0117647674893
 10
2120.21176397347
 20
-706.4588235910187
 10
2120.164705149941
 20
-706.8823530027835
 10
2120.047058091117
 20
-707.2823530027833
 10
2119.835293385234
 20
-707.6823530027833
 10
2119.552940444058
 20
-708.0117647674893
 10
2119.223528679352
 20
-708.2705882969009
 10
2118.847058091117
 20
-708.4823530027834
 10
2118.423528679352
 20
-708.6235294733717
 10
2117.999999267587
 20
-708.6705882969011
 10
2117.576469855822
 20
-708.6235294733717
 10
2117.152940444058
 20
-708.4823530027834
 10
2116.776469855823
 20
-708.2705882969009
 10
2116.447058091117
 20
-708.0117647674893
 10
2116.164705149941
 20
-707.6823530027833
 10
2115.976469855822
 20
-707.2823530027833
 10
2115.835293385234
 20
-706.8823530027835
 10
2115.81176397347
 20
-706.4588235910187
 10
2115.835293385234
 20
-706.0117647674893
 10
2115.976469855822
 20
-705.6117647674892
 10
2116.164705149941
 20
-705.2352941792539
 10
2116.447058091117
 20
-704.9058824145482
 10
2116.776469855823
 20
-704.6235294733717
 10
2117.152940444058
 20
-704.4352941792539
 10
2117.576469855822
 20
-704.2941177086658
 10
2117.999999267587
 20
-704.2470588851363
  0
LWPOLYLINE
  5
35BF
330
2
100
AcDbEntity
  8
0
 62
   255
370
    -3
100
AcDbPolyline
 90
       63
 70
     0
 43
0.0
 10
2117.999999267587
 20
-714.4588235910187
 10
2118.799999267587
 20
-714.4117647674893
 10
2119.623528679352
 20
-714.2941177086657
 10
2120.399999267587
 20
-714.105882414548
 10
2121.152940444058
 20
-713.8235294733715
 10
2121.882352208764
 20
-713.4705882969009
 10
2122.588234561705
 20
-713.0235294733714
 10
2123.223528679352
 20
-712.5294118263127
 10
2123.81176397347
 20
-711.9647059439597
 10
2124.329411032293
 20
-711.3529412380775
 10
2124.799999267587
 20
-710.6941177086658
 10
2125.199999267588
 20
-709.9647059439597
 10
2125.505881620529
 20
-709.2352941792539
 10
2125.76470514994
 20
-708.4588235910187
 10
2125.905881620528
 20
-707.6823530027833
 10
2125.999999267587
 20
-706.8588235910186
 10
2125.999999267587
 20
-706.0588235910187
 10
2125.905881620528
 20
-705.2352941792539
 10
2125.76470514994
 20
-704.4588235910187
 10
2125.505881620529
 20
-703.6823530027833
 10
2125.199999267588
 20
-702.9294118263127
 10
2124.799999267587
 20
-702.2235294733716
 10
2124.329411032293
 20
-701.5647059439597
 10
2123.81176397347
 20
-700.9294118263127
 10
2123.223528679352
 20
-700.3882353557246
 10
2122.588234561705
 20
-699.8941177086658
 10
2121.882352208764
 20
-699.4470588851362
 10
2121.152940444058
 20
-699.0941177086657
 10
2120.399999267587
 20
-698.8117647674893
 10
2119.623528679352
 20
-698.6000000616069
 10
2118.799999267587
 20
-698.5058824145482
 10
2117.999999267587
 20
-698.4588235910186
 10
2117.176469855823
 20
-698.5058824145482
 10
2116.399999267587
 20
-698.6000000616069
 10
2115.599999267587
 20
-698.8117647674893
 10
2114.847058091116
 20
-699.0941177086657
 10
2114.117646326411
 20
-699.4470588851362
 10
2113.435293385234
 20
-699.8941177086658
 10
2112.776469855823
 20
-700.3882353557246
 10
2112.21176397347
 20
-700.9294118263127
 10
2111.670587502882
 20
-701.5647059439597
 10
2111.223528679352
 20
-702.2235294733716
 10
2110.823528679352
 20
-702.9294118263127
 10
2110.494116914646
 20
-703.6823530027833
 10
2110.258822796999
 20
-704.4588235910187
 10
2110.094116914646
 20
-705.2352941792539
 10
2110.023528679352
 20
-706.0588235910187
 10
2110.023528679352
 20
-706.8588235910186
 10
2110.094116914646
 20
-707.6823530027833
 10
2110.258822796999
 20
-708.4588235910187
 10
2110.494116914646
 20
-709.2352941792539
 10
2110.823528679352
 20
-709.9647059439597
 10
2111.223528679352
 20
-710.6941177086658
 10
2111.670587502882
 20
-711.3529412380775
 10
2112.21176397347
 20
-711.9647059439597
 10
2112.776469855823
 20
-712.5294118263127
 10
2113.435293385234
 20
-713.0235294733714
 10
2114.117646326411
 20
-713.4705882969009
 10
2114.847058091116
 20
-713.8235294733715
 10
2115.599999267587
 20
-714.105882414548
 10
2116.399999267587
 20
-714.2941177086657
 10
2117.176469855823
 20
-714.4117647674893
 10
2117.999999267587
 20
-714.4588235910187
  0
LWPOLYLINE
  5
35C0
330
2
100
AcDbEntity
  8
0
 62
   255
370
    -3
100
AcDbPolyline
 90
       35
 70
     0
 43
0.0
 10
2117.999999267587
 20
-708.9529412380775
 10
2118.447058091117
 20
-708.9058824145482
 10
2118.917646326411
 20
-708.7882353557246
 10
2119.317646326411
 20
-708.5764706498422
 10
2119.694116914646
 20
-708.3176471204304
 10
2119.999999267587
 20
-707.9647059439597
 10
2120.235293385235
 20
-707.5647059439598
 10
2120.399999267587
 20
-707.1411765321952
 10
2120.494116914646
 20
-706.6941177086658
 10
2120.494116914646
 20
-706.2235294733716
 10
2120.399999267587
 20
-705.7764706498422
 10
2120.235293385235
 20
-705.3529412380775
 10
2119.999999267587
 20
-704.9529412380775
 10
2119.694116914646
 20
-704.6000000616069
 10
2119.317646326411
 20
-704.3176471204304
 10
2118.917646326411
 20
-704.1294118263127
 10
2118.447058091117
 20
-704.0117647674893
 10
2117.999999267587
 20
-703.9647059439597
 10
2117.529411032293
 20
-704.0117647674893
 10
2117.105881620529
 20
-704.1294118263127
 10
2116.682352208764
 20
-704.3176471204304
 10
2116.305881620529
 20
-704.6000000616069
 10
2115.999999267587
 20
-704.9529412380775
 10
2115.76470514994
 20
-705.3529412380775
 10
2115.599999267587
 20
-705.7764706498422
 10
2115.505881620528
 20
-706.2235294733716
 10
2115.505881620528
 20
-706.6941177086658
 10
2115.599999267587
 20
-707.1411765321952
 10
2115.76470514994
 20
-707.5647059439598
 10
2115.999999267587
 20
-707.9647059439597
 10
2116.305881620529
 20
-708.3176471204304
 10
2116.682352208764
 20
-708.5764706498422
 10
2117.105881620529
 20
-708.7882353557246
 10
2117.529411032293
 20
-708.9058824145482
 10
2117.999999267587
 20
-708.9529412380775
  0
LWPOLYLINE
  5
35C1
330
2
100
AcDbEntity
  8
0
 62
   255
370
    -3
100
AcDbPolyline
 90
       12
 70
     0
 43
0.0
 10
2120.376469855822
 20
-710.5764706498422
 10
2120.141175738176
 20
-710.7411765321951
 10
2119.999999267587
 20
-710.9764706498422
 10
2119.905881620528
 20
-711.2352941792538
 10
2119.882352208763
 20
-711.5176471204303
 10
2119.952940444058
 20
-711.8000000616071
 10
2120.094116914646
 20
-712.0588235910187
 10
2120.282352208764
 20
-712.2470588851363
 10
2120.541175738175
 20
-712.3882353557246
 10
2120.823528679352
 20
-712.4352941792539
 10
2121.105881620529
 20
-712.4117647674893
 10
2121.388234561705
 20
-712.2941177086658
  0
LWPOLYLINE
  5
35C2
330
2
100
AcDbEntity
  8
0
 62
   255
370
    -3
100
AcDbPolyline
 90
        9
 70
     0
 43
0.0
 10
2121.388234561705
 20
-712.2941177086658
 10
2122.047058091117
 20
-711.8470588851362
 10
2122.682352208764
 20
-711.3294118263127
 10
2123.223528679352
 20
-710.7411765321951
 10
2123.694116914646
 20
-710.0823530027834
 10
2124.094116914646
 20
-709.3764706498421
 10
2124.399999267587
 20
-708.6235294733717
 10
2124.61176397347
 20
-707.8470588851362
 10
2124.729411032293
 20
-707.0470588851364
  0
LWPOLYLINE
  5
35C3
330
2
100
AcDbEntity
  8
0
 62
   255
370
    -3
100
AcDbPolyline
 90
       12
 70
     0
 43
0.0
 10
2124.729411032293
 20
-707.0470588851364
 10
2124.705881620529
 20
-706.7647059439598
 10
2124.61176397347
 20
-706.4823530027831
 10
2124.447058091117
 20
-706.270588296901
 10
2124.235293385234
 20
-706.0823530027834
 10
2123.952940444058
 20
-705.9882353557244
 10
2123.670587502882
 20
-705.9647059439598
 10
2123.388234561705
 20
-706.0117647674893
 10
2123.152940444058
 20
-706.1529412380775
 10
2122.941175738175
 20
-706.3411765321951
 10
2122.799999267587
 20
-706.6000000616069
 10
2122.729411032294
 20
-706.8588235910186
  0
LWPOLYLINE
  5
35C4
330
2
100
AcDbEntity
  8
0
 62
   255
370
    -3
100
AcDbPolyline
 90
        9
 70
     0
 43
0.0
 10
2122.729411032294
 20
-706.8588235910186
 10
2122.658822796999
 20
-707.4235294733718
 10
2122.517646326411
 20
-707.9882353557244
 10
2122.282352208765
 20
-708.505882414548
 10
2122.023528679352
 20
-709.0235294733716
 10
2121.670587502881
 20
-709.4705882969009
 10
2121.294116914646
 20
-709.8941177086658
 10
2120.847058091117
 20
-710.2470588851363
 10
2120.376469855822
 20
-710.5764706498422
  0
LWPOLYLINE
  5
35C5
330
2
100
AcDbEntity
  8
0
 62
   255
370
    -3
100
AcDbPolyline
 90
       12
 70
     0
 43
0.0
 10
2113.247058091117
 20
-706.4588235910187
 10
2113.199999267587
 20
-706.1764706498422
 10
2113.082352208764
 20
-705.9176471204304
 10
2112.917646326411
 20
-705.7058824145482
 10
2112.658822797
 20
-705.5411765321951
 10
2112.376469855822
 20
-705.4705882969009
 10
2112.094116914646
 20
-705.4705882969009
 10
2111.835293385234
 20
-705.5411765321951
 10
2111.599999267587
 20
-705.7058824145482
 10
2111.41176397347
 20
-705.9176471204304
 10
2111.294116914646
 20
-706.1764706498422
 10
2111.247058091117
 20
-706.4588235910187
  0
LWPOLYLINE
  5
35C6
330
2
100
AcDbEntity
  8
0
 62
   255
370
    -3
100
AcDbPolyline
 90
        9
 70
     0
 43
0.0
 10
2111.247058091117
 20
-706.4588235910187
 10
2111.294116914646
 20
-707.2588235910187
 10
2111.435293385234
 20
-708.0588235910187
 10
2111.670587502882
 20
-708.835294179254
 10
2111.999999267587
 20
-709.5882353557247
 10
2112.423528679352
 20
-710.270588296901
 10
2112.917646326411
 20
-710.9058824145481
 10
2113.482352208764
 20
-711.4941177086657
 10
2114.117646326411
 20
-711.9882353557244
  0
LWPOLYLINE
  5
35C7
330
2
100
AcDbEntity
  8
0
 62
   255
370
    -3
100
AcDbPolyline
 90
       12
 70
     0
 43
0.0
 10
2114.117646326411
 20
-711.9882353557244
 10
2114.376469855823
 20
-712.1294118263127
 10
2114.658822796999
 20
-712.1529412380775
 10
2114.941175738175
 20
-712.1294118263127
 10
2115.199999267588
 20
-712.035294179254
 10
2115.435293385234
 20
-711.8470588851362
 10
2115.599999267587
 20
-711.6352941792539
 10
2115.694116914646
 20
-711.3529412380775
 10
2115.694116914646
 20
-711.0705882969011
 10
2115.623528679352
 20
-710.7882353557246
 10
2115.482352208764
 20
-710.5294118263127
 10
2115.270587502882
 20
-710.3647059439598
  0
LWPOLYLINE
  5
35C8
330
2
100
AcDbEntity
  8
0
 62
   255
370
    -3
100
AcDbPolyline
 90
        9
 70
     0
 43
0.0
 10
2115.270587502882
 20
-710.3647059439598
 10
2114.823528679352
 20
-709.9882353557244
 10
2114.423528679353
 20
-709.5882353557247
 10
2114.070587502882
 20
-709.1411765321952
 10
2113.788234561705
 20
-708.6470588851364
 10
2113.552940444058
 20
-708.1294118263127
 10
2113.388234561705
 20
-707.5882353557244
 10
2113.294116914646
 20
-707.0235294733715
 10
2113.247058091117
 20
-706.4588235910187
  0
LWPOLYLINE
  5
35C9
330
2
100
AcDbEntity
  8
0
 62
   255
370
    -3
100
AcDbPolyline
 90
       18
 70
     0
 43
0.0
 10
2121.529411032293
 20
-711.4470588851362
 10
2121.482352208764
 20
-711.2117647674892
 10
2121.36470514994
 20
-711.0000000616069
 10
2121.176469855823
 20
-710.8588235910186
 10
2120.941175738176
 20
-710.7882353557246
 10
2120.705881620529
 20
-710.8117647674893
 10
2120.494116914646
 20
-710.9294118263127
 10
2120.329411032293
 20
-711.0941177086657
 10
2120.235293385235
 20
-711.3058824145481
 10
2120.235293385235
 20
-711.5647059439598
 10
2120.329411032293
 20
-711.776470649842
 10
2120.494116914646
 20
-711.9411765321951
 10
2120.705881620529
 20
-712.0588235910187
 10
2120.941175738176
 20
-712.0823530027834
 10
2121.176469855823
 20
-712.0117647674893
 10
2121.36470514994
 20
-711.8705882969011
 10
2121.482352208764
 20
-711.6588235910186
 10
2121.529411032293
 20
-711.4470588851362
  0
LWPOLYLINE
  5
35CA
330
2
100
AcDbEntity
  8
0
 62
   255
370
    -3
100
AcDbPolyline
 90
       18
 70
     0
 43
0.0
 10
2112.894116914646
 20
-706.4588235910187
 10
2112.847058091117
 20
-706.2235294733716
 10
2112.729411032293
 20
-706.0117647674893
 10
2112.541175738175
 20
-705.8705882969011
 10
2112.305881620528
 20
-705.8000000616068
 10
2112.070587502882
 20
-705.8470588851362
 10
2111.858822796999
 20
-705.9411765321953
 10
2111.694116914646
 20
-706.1294118263129
 10
2111.599999267587
 20
-706.3411765321951
 10
2111.599999267587
 20
-706.5764706498422
 10
2111.694116914646
 20
-706.7882353557246
 10
2111.858822796999
 20
-706.9764706498422
 10
2112.070587502882
 20
-707.0705882969011
 10
2112.305881620528
 20
-707.1176471204304
 10
2112.541175738175
 20
-707.0470588851364
 10
2112.729411032293
 20
-706.9058824145481
 10
2112.847058091117
 20
-706.6941177086658
 10
2112.894116914646
 20
-706.4588235910187
  0
LWPOLYLINE
  5
35CB
330
2
100
AcDbEntity
  8
0
 62
   255
370
    -3
100
AcDbPolyline
 90
       18
 70
     0
 43
0.0
 10
2113.082352208764
 20
-707.9411765321951
 10
2113.058822796999
 20
-707.7058824145482
 10
2112.917646326411
 20
-707.4941177086657
 10
2112.729411032293
 20
-707.3529412380777
 10
2112.494116914646
 20
-707.2823530027833
 10
2112.282352208764
 20
-707.3294118263127
 10
2112.047058091117
 20
-707.4235294733718
 10
2111.882352208764
 20
-707.6117647674892
 10
2111.81176397347
 20
-707.8235294733715
 10
2111.81176397347
 20
-708.0588235910187
 10
2111.882352208764
 20
-708.2941177086658
 10
2112.047058091117
 20
-708.4588235910187
 10
2112.282352208764
 20
-708.5764706498422
 10
2112.494116914646
 20
-708.6000000616069
 10
2112.729411032293
 20
-708.5294118263127
 10
2112.917646326411
 20
-708.3882353557246
 10
2113.058822796999
 20
-708.1764706498423
 10
2113.082352208764
 20
-707.9411765321951
  0
LWPOLYLINE
  5
35CC
330
2
100
AcDbEntity
  8
0
 62
   255
370
    -3
100
AcDbPolyline
 90
       18
 70
     0
 43
0.0
 10
2113.670587502882
 20
-709.3294118263127
 10
2113.623528679352
 20
-709.0941177086657
 10
2113.505881620528
 20
-708.9058824145482
 10
2113.294116914646
 20
-708.7411765321951
 10
2113.082352208764
 20
-708.6941177086657
 10
2112.847058091117
 20
-708.6941177086657
 10
2112.635293385235
 20
-708.8117647674892
 10
2112.470587502881
 20
-708.9764706498422
 10
2112.376469855822
 20
-709.2117647674893
 10
2112.376469855822
 20
-709.4470588851362
 10
2112.470587502881
 20
-709.6823530027833
 10
2112.635293385235
 20
-709.8470588851362
 10
2112.847058091117
 20
-709.9647059439597
 10
2113.082352208764
 20
-709.9647059439597
 10
2113.294116914646
 20
-709.9176471204304
 10
2113.505881620528
 20
-709.7764706498422
 10
2113.623528679352
 20
-709.5647059439597
 10
2113.670587502882
 20
-709.3294118263127
  0
LWPOLYLINE
  5
35CD
330
2
100
AcDbEntity
  8
0
 62
   255
370
    -3
100
AcDbPolyline
 90
       18
 70
     0
 43
0.0
 10
2115.341175738175
 20
-711.1647059439597
 10
2115.317646326412
 20
-710.9294118263127
 10
2115.176469855823
 20
-710.7411765321951
 10
2114.988234561705
 20
-710.5764706498422
 10
2114.752940444058
 20
-710.5294118263127
 10
2114.517646326411
 20
-710.5294118263127
 10
2114.305881620529
 20
-710.6470588851363
 10
2114.141175738176
 20
-710.8117647674893
 10
2114.070587502882
 20
-711.0470588851362
 10
2114.070587502882
 20
-711.2823530027833
 10
2114.141175738176
 20
-711.5176471204303
 10
2114.305881620529
 20
-711.6823530027833
 10
2114.517646326411
 20
-711.8000000616071
 10
2114.752940444058
 20
-711.8000000616071
 10
2114.988234561705
 20
-711.7529412380775
 10
2115.176469855823
 20
-711.6117647674892
 10
2115.317646326412
 20
-711.4000000616068
 10
2115.341175738175
 20
-711.1647059439597
  0
LWPOLYLINE
  5
35CE
330
2
100
AcDbEntity
  8
0
 62
   255
370
    -3
100
AcDbPolyline
 90
       18
 70
     0
 43
0.0
 10
2124.376469855823
 20
-706.9529412380775
 10
2124.352940444058
 20
-706.7176471204304
 10
2124.21176397347
 20
-706.5058824145482
 10
2124.023528679352
 20
-706.3647059439598
 10
2123.788234561705
 20
-706.2941177086657
 10
2123.552940444058
 20
-706.3411765321951
 10
2123.341175738175
 20
-706.435294179254
 10
2123.176469855823
 20
-706.6235294733717
 10
2123.082352208764
 20
-706.8352941792539
 10
2123.082352208764
 20
-707.0705882969011
 10
2123.176469855823
 20
-707.3058824145481
 10
2123.341175738175
 20
-707.4705882969009
 10
2123.552940444058
 20
-707.5882353557244
 10
2123.788234561705
 20
-707.6117647674892
 10
2124.023528679352
 20
-707.5411765321953
 10
2124.21176397347
 20
-707.4000000616068
 10
2124.352940444058
 20
-707.1882353557246
 10
2124.376469855823
 20
-706.9529412380775
  0
LWPOLYLINE
  5
35CF
330
2
100
AcDbEntity
  8
0
 62
   255
370
    -3
100
AcDbPolyline
 90
       18
 70
     0
 43
0.0
 10
2123.129411032294
 20
-708.6941177086657
 10
2122.894116914646
 20
-708.6941177086657
 10
2122.658822796999
 20
-708.7647059439598
 10
2122.470587502881
 20
-708.9058824145482
 10
2122.376469855822
 20
-709.1176471204304
 10
2122.329411032293
 20
-709.3764706498421
 10
2122.399999267587
 20
-709.5882353557247
 10
2122.517646326411
 20
-709.8000000616068
 10
2122.729411032294
 20
-709.9411765321953
 10
2122.96470514994
 20
-709.9882353557244
 10
2123.199999267587
 20
-709.9411765321953
 10
2123.388234561705
 20
-709.8235294733715
 10
2123.552940444058
 20
-709.6588235910186
 10
2123.623528679353
 20
-709.4235294733715
 10
2123.599999267587
 20
-709.1882353557244
 10
2123.505881620528
 20
-708.9529412380775
 10
2123.341175738175
 20
-708.7882353557246
 10
2123.129411032294
 20
-708.6941177086657
  0
LWPOLYLINE
  5
35D0
330
2
100
AcDbEntity
  8
0
 62
   255
370
    -3
100
AcDbPolyline
 90
       18
 70
     0
 43
0.0
 10
2122.729411032294
 20
-710.5294118263127
 10
2122.682352208764
 20
-710.2941177086657
 10
2122.541175738176
 20
-710.0823530027834
 10
2122.352940444058
 20
-709.9411765321953
 10
2122.117646326411
 20
-709.8705882969011
 10
2121.882352208764
 20
-709.8941177086658
 10
2121.670587502881
 20
-710.0117647674893
 10
2121.529411032293
 20
-710.1764706498422
 10
2121.435293385234
 20
-710.3882353557246
 10
2121.435293385234
 20
-710.6470588851363
 10
2121.529411032293
 20
-710.8588235910186
 10
2121.670587502881
 20
-711.0470588851362
 10
2121.882352208764
 20
-711.1411765321952
 10
2122.117646326411
 20
-711.1647059439597
 10
2122.352940444058
 20
-711.0941177086657
 10
2122.541175738176
 20
-710.9529412380775
 10
2122.682352208764
 20
-710.7647059439598
 10
2122.729411032294
 20
-710.5294118263127
  0
LWPOLYLINE
  5
35D1
330
2
100
AcDbEntity
  8
0
 62
   255
370
    -3
100
AcDbPolyline
 90
       26
 70
     0
 43
0.0
 10
2119.341175738176
 20
-706.4588235910187
 10
2119.294116914646
 20
-706.1294118263129
 10
2119.152940444058
 20
-705.8235294733715
 10
2118.96470514994
 20
-705.5411765321951
 10
2118.705881620529
 20
-705.3294118263127
 10
2118.423528679352
 20
-705.1882353557246
 10
2118.094116914646
 20
-705.1411765321952
 10
2117.741175738176
 20
-705.1411765321952
 10
2117.435293385234
 20
-705.2588235910186
 10
2117.152940444058
 20
-705.4235294733715
 10
2116.941175738176
 20
-705.6823530027833
 10
2116.752940444058
 20
-705.9647059439598
 10
2116.682352208764
 20
-706.2941177086657
 10
2116.682352208764
 20
-706.6235294733717
 10
2116.752940444058
 20
-706.9294118263127
 10
2116.941175738176
 20
-707.2352941792538
 10
2117.152940444058
 20
-707.4705882969009
 10
2117.435293385234
 20
-707.6588235910186
 10
2117.741175738176
 20
-707.7529412380775
 10
2118.094116914646
 20
-707.776470649842
 10
2118.423528679352
 20
-707.7058824145482
 10
2118.705881620529
 20
-707.5647059439598
 10
2118.96470514994
 20
-707.3529412380777
 10
2119.152940444058
 20
-707.0941177086657
 10
2119.294116914646
 20
-706.7882353557246
 10
2119.341175738176
 20
-706.4588235910187
  0
LWPOLYLINE
  5
35D2
330
2
100
AcDbEntity
  8
0
 62
     2
370
    -3
100
AcDbPolyline
 90
        2
 70
     0
 43
0.0
 10
1991.134175607172
 20
-693.7306199811595
 10
1989.807116783642
 20
-695.7353258635126
  0
LWPOLYLINE
  5
35D3
330
2
100
AcDbEntity
  8
0
 62
     2
370
    -3
100
AcDbPolyline
 90
        2
 70
     0
 43
0.0
 10
1989.807116783642
 20
-695.7353258635126
 10
1993.336528548348
 20
-698.0223846870419
  0
LWPOLYLINE
  5
35D4
330
2
100
AcDbEntity
  8
0
 62
     2
370
    -3
100
AcDbPolyline
 90
        2
 70
     0
 43
0.0
 10
1993.336528548348
 20
-698.0223846870419
 10
1994.63535207776
 20
-695.9894435105714
  0
LWPOLYLINE
  5
35D5
330
2
100
AcDbEntity
  8
0
 62
     2
370
    -3
100
AcDbPolyline
 90
        2
 70
     0
 43
0.0
 10
1994.63535207776
 20
-695.9894435105714
 10
1991.134175607172
 20
-693.7306199811595
  0
DIMENSION
  5
35D6
330
2
100
AcDbEntity
  8
0
100
AcDbDimension
  2
*D9
 10
2017.694116914646
 20
-727.0
 30
0.0
 11
2028.388234561705
 21
-725.3124999999998
 31
0.0
 70
    32
  1
300
 71
     5
 42
21.38823529411752
 73
     0
 74
     0
 75
     0
  3
DMST_1
100
AcDbAlignedDimension
 13
2039.082352208763
 23
-714.4588235910187
 33
0.0
 14
2017.694116914646
 24
-706.9764706498422
 34
0.0
100
AcDbRotatedDimension
1001
ACAD
1000
DSTYLE
1002
{
1070
    40
1040
0.75
1002
}
  0
DIMENSION
  5
35E3
330
2
100
AcDbEntity
  8
0
100
AcDbDimension
  2
*D10
 10
2075.082352208764
 20
-727.0
 30
0.0
 11
2057.130572445187
 21
-727.0
 31
0.0
 70
   160
 71
     5
 42
36.00000000000023
 73
     0
 74
     0
 75
     0
  3
DMST_1
100
AcDbAlignedDimension
 13
2039.082352208763
 23
-714.8338235910187
 33
0.0
 14
2075.082352208764
 24
-714.4588235910187
 34
0.0
100
AcDbRotatedDimension
1001
ACAD
1000
DSTYLE
1002
{
1070
   146
1040
0.75
1070
   272
1070
     1
1070
    47
1040
0.1
1070
   147
1040
1.0
1070
    48
1040
0.1
1070
    72
1070
     0
1070
    71
1070
     1
1070
    40
1040
0.75
1070
   279
1070
     0
1002
}
  0
DIMENSION
  5
35F0
330
2
100
AcDbEntity
  8
0
100
AcDbDimension
  2
*D11
 10
2085.082352208764
 20
-727.0
 30
0.0
 11
2079.762864388031
 21
-727.0
 31
0.0
 70
   160
 71
     5
 42
10.0
 73
     0
 74
     0
 75
     0
  3
DMST_1
100
AcDbAlignedDimension
 13
2075.082352208764
 23
-714.4588235910187
 33
0.0
 14
2085.082352208764
 24
-707.776470649842
 34
0.0
100
AcDbRotatedDimension
1001
ACAD
1000
DSTYLE
1002
{
1070
    40
1040
0.75
1070
    47
1040
0.2
1070
    48
1040
0.2
1070
    71
1070
     1
1070
   146
1040
0.75
1070
   272
1070
     1
1070
   279
1070
     0
1002
}
  0
LINE
  5
3604
330
2
100
AcDbEntity
  8
0
 62
   255
100
AcDbLine
 10
2075.082352208764
 20
-698.4588235910186
 30
0.0
 11
2075.082352208764
 21
-714.4588235910187
 31
0.0
  0
LINE
  5
3605
330
2
100
AcDbEntity
  8
0
 62
   255
100
AcDbLine
 10
2071.199999267587
 20
-698.4588235910186
 30
0.0
 11
2071.199999267587
 21
-714.4588235910187
 31
0.0
  0
DIMENSION
  5
363C
330
2
100
AcDbEntity
  8
0
 62
   255
100
AcDbDimension
  2
*D12
 10
2076.094116914646
 20
-719.7870695346469
 30
0.0
 11
2070.113602208764
 21
-719.7870695346469
 31
0.0
 70
   160
 71
     5
 42
1.011764705882342
 73
     0
 74
     0
 75
     0
  3
DMST_1
100
AcDbAlignedDimension
 13
2075.082352208764
 23
-714.4588235910187
 33
0.0
 14
2076.094116914646
 24
-711.1647059439597
 34
0.0
100
AcDbRotatedDimension
1001
ACAD
1000
DSTYLE
1002
{
1070
    40
1040
0.75
1070
   172
1070
     1
1070
   271
1070
     0
1070
   279
1070
     0
1002
}
  0
HATCH
  5
36DB
330
2
100
AcDbEntity
  8
0
 62
     2
100
AcDbHatch
 10
0.0
 20
0.0
 30
0.0
210
0.0
220
0.0
230
1.0
  2
ANSI31
 70
     0
 71
     1
 91
        1
 92
        7
 72
     0
 73
     1
 93
       12
 10
2021.694116914646
 20
-706.3882353557247
 10
2021.694116914646
 20
-706.270588296901
 10
2017.694116914646
 20
-706.270588296901
 10
2017.694116914646
 20
-706.2941177086657
 10
2017.694116914646
 20
-706.3882353557247
 10
2017.694116914646
 20
-706.5058824145482
 10
2017.694116914646
 20
-706.6235294733717
 10
2017.694116914646
 20
-706.7647059439598
 10
2017.694116914646
 20
-706.8823530027835
 10
2017.694116914646
 20
-706.9529412380775
 10
2017.694116914646
 20
-706.9764706498422
 10
2021.694116914646
 20
-706.9764706498422
 97
        5
330
357B
330
3579
330
357D
330
357E
330
357A
 75
     0
 76
     1
 52
0.0
 41
1.5
 77
     0
 78
     1
 53
45.0
 43
0.0
 44
0.0
 45
-0.1325825214724776
 46
0.1325825214724777
 79
     0
 47
0.0068097939183138
 98
        1
 10
2019.266693325795
 20
-706.6826865688052
1001
ACAD
1010
0.0
1020
0.0
1030
0.0
  0
DIMENSION
  5
36DC
330
2
100
AcDbEntity
  8
0
 62
   255
100
AcDbDimension
  2
*D13
 10
2017.694116914646
 20
-714.4245895378272
 30
0.0
 11
2005.852320039646
 21
-714.4245895378272
 31
0.0
 70
   160
  1
<>{\H0.5625x; twisted & tinned}
 71
     5
 42
4.0
 73
     0
 74
     0
 75
     0
  3
DMST_1
100
AcDbAlignedDimension
 13
2021.694116914646
 23
-707.2823530027833
 33
0.0
 14
2017.694116914646
 24
-706.9764706498422
 34
0.0
100
AcDbRotatedDimension
1001
ACAD
1000
DSTYLE
1002
{
1070
    40
1040
0.75
1070
    47
1040
1.0
1070
    48
1040
1.0
1070
    71
1070
     1
1070
   146
1040
0.75
1070
   172
1070
     1
1070
   271
1070
     0
1070
   272
1070
     0
1070
   279
1070
     0
1002
}
  0
MTEXT
  5
3741
330
2
100
AcDbEntity
  8
0
 62
   255
100
AcDbMText
 10
2030.642915356521
 20
-722.6291923872719
 30
0.0
 40
1.5
 41
4.13604202334818
 46
0.0
 71
     1
 72
     5
  1
{\C3;+20\P 0}
 73
     1
 44
1.0
  0
MTEXT
  5
3749
330
2
100
AcDbEntity
  8
0
 62
   255
100
AcDbMText
 10
2070.714234728609
 20
-715.1936288474352
 30
0.0
 40
1.5
 41
4.13604202334818
 46
0.0
 71
     1
 72
     5
  1
{\C3; 0\P-0.1}
 73
     1
 44
1.0
  0
LINE
  5
37E9
330
2
100
AcDbEntity
  8
0
 62
     2
100
AcDbLine
 10
2085.151469855823
 20
-704.9529412380775
 30
0.0
 11
2094.570183870807
 21
-704.9529412380775
 31
0.0
  0
LINE
  5
37EC
330
2
100
AcDbEntity
  8
0
 62
     2
100
AcDbLine
 10
2093.820183870807
 20
-703.0779412380775
 30
0.0
 11
2093.820183870807
 21
-692.2317962763838
 31
0.0
  0
SOLID
  5
37EF
330
2
100
AcDbEntity
  8
0
 62
     2
100
AcDbTrace
 10
2093.507683870807
 20
-703.0779412380775
 30
0.0
 11
2094.132683870807
 21
-703.0779412380775
 31
0.0
 12
2093.820183870807
 22
-704.9529412380775
 32
0.0
 13
2093.820183870807
 23
-704.9529412380775
 33
0.0
  0
MTEXT
  5
37F0
330
2
100
AcDbEntity
  8
0
 62
     3
100
AcDbMText
 10
2090.882683870807
 20
-697.7540907418179
 30
0.0
 40
1.875
 41
0.0
 46
0.0
 71
     5
 72
     1
  1
\A1;%%c3\S-0.006^ -0.009;
 11
0.0000000000000001
 21
1.0
 31
0.0
 73
     1
 44
1.0
  0
LINE
  5
37F1
330
2
100
AcDbEntity
  8
0
 62
     2
100
AcDbLine
 10
2076.163234561705
 20
-701.4470588851362
 30
0.0
 11
2085.581948576689
 21
-701.4470588851362
 31
0.0
  0
LINE
  5
37F2
330
2
100
AcDbEntity
  8
0
 62
     2
100
AcDbLine
 10
2084.831948576689
 20
-699.5720588851362
 30
0.0
 11
2084.831948576689
 21
-690.2151917187007
 31
0.0
  0
SOLID
  5
37F3
330
2
100
AcDbEntity
  8
0
 62
     2
100
AcDbTrace
 10
2084.519448576689
 20
-699.5720588851362
 30
0.0
 11
2085.14444857669
 21
-699.5720588851362
 31
0.0
 12
2084.831948576689
 22
-701.4470588851362
 32
0.0
 13
2084.831948576689
 23
-701.4470588851362
 33
0.0
  0
TEXT
  5
37F5
330
2
100
AcDbEntity
  8
0
 62
     3
100
AcDbText
 10
2082.959938141773
 20
-699.9211890184279
 30
0.0
 40
1.875
  1
∅10
 50
90.0
100
AcDbText
  0
TEXT
  5
37F6
330
2
100
AcDbEntity
  8
0
 62
     3
100
AcDbText
 10
2081.552759082903
 20
-695.0378940484926
 30
0.0
 40
1.875
  1
0
 50
90.0
100
AcDbText
  0
TEXT
  5
37F7
330
2
100
AcDbEntity
  8
0
 62
     3
100
AcDbText
 10
2084.052759082903
 20
-696.3194860267098
 30
0.0
 40
1.875
  1
-0.02
 50
90.0
100
AcDbText
  0
DIMENSION
  5
37F8
330
2
100
AcDbEntity
  8
0
 62
   255
100
AcDbDimension
  2
*D14
 10
2067.082352208764
 20
-692.1679910295267
 30
0.0
 11
2071.082352208764
 21
-690.4804910295267
 31
0.0
 70
    32
 71
     5
 42
8.0
 73
     0
 74
     0
 75
     0
  3
DMST_1
100
AcDbAlignedDimension
 13
2075.082352208764
 23
-698.4588235910186
 33
0.0
 14
2067.082352208764
 24
-698.2470588851363
 34
0.0
100
AcDbRotatedDimension
1001
ACAD
1000
DSTYLE
1002
{
1070
    40
1040
0.75
1070
    47
1040
5.0
1070
    48
1040
5.0
1070
    71
1070
     1
1070
   146
1040
0.75
1070
   172
1070
     1
1070
   271
1070
     0
1070
   272
1070
     0
1002
}
  0
LINE
  5
3836
330
2
100
AcDbEntity
  8
0
 62
     2
100
AcDbLine
 10
2043.576469855823
 20
-696.5838235910187
 30
0.0
 11
2043.576469855823
 21
-687.2269564245832
 31
0.0
  0
SOLID
  5
3837
330
2
100
AcDbEntity
  8
0
 62
     2
100
AcDbTrace
 10
2043.263969855823
 20
-696.5838235910187
 30
0.0
 11
2043.888969855823
 21
-696.5838235910187
 31
0.0
 12
2043.576469855823
 22
-698.4588235910186
 32
0.0
 13
2043.576469855823
 23
-698.4588235910186
 33
0.0
  0
TEXT
  5
3838
330
2
100
AcDbEntity
  8
0
 62
     3
100
AcDbText
 10
2041.704459420906
 20
-696.9329537243103
 30
0.0
 40
1.875
  1
∅16
 50
90.0
100
AcDbText
  0
TEXT
  5
3839
330
2
100
AcDbEntity
  8
0
 62
     3
100
AcDbText
 10
2040.297280362036
 20
-692.5494325360719
 30
0.0
 40
1.875
  1
+0.05
 50
90.0
100
AcDbText
  0
TEXT
  5
383A
330
2
100
AcDbEntity
  8
0
 62
     3
100
AcDbText
 10
2042.797280362036
 20
-692.5494325360719
 30
0.0
 40
1.875
  1
-0.10
 50
90.0
100
AcDbText
  0
LEADER
  5
383B
330
2
100
AcDbEntity
  8
0
 62
   255
100
AcDbLeader
  3
DMST_1
 74
     0
 40
1.875
 76
     3
 10
2025.398972145623
 20
-706.6237151004526
 30
0.0
 10
2025.398972145623
 20
-674.430502699217
 30
0.0
 10
2029.713559431691
 20
-674.430502699217
 30
0.0
213
-5.870650037408267
223
0.0
233
0.0
1001
ACAD
1000
DSTYLE
1002
{
1070
    41
1040
1.0
1070
   341
1005
1356
1070
    40
1040
0.75
1002
}
  0
MTEXT
  5
383C
330
2
100
AcDbEntity
  8
0
 62
     3
100
AcDbMText
 10
2036.334209469099
 20
-673.6805026992168
 30
0.0
 40
1.875
 41
0.0
 46
0.0
 71
     7
 72
     1
  1
\A1;
 73
     1
 44
1.0
  0
MTEXT
  5
383D
330
2
100
AcDbEntity
  8
0
 62
   255
100
AcDbMText
 10
2030.585595121468
 20
-673.1361630459858
 30
0.0
 40
2.0
 41
91.89687500821944
 46
0.0
 71
     1
 72
     5
  1
{\C3;8 x Flat cable (ribbon)\PInsulation: PVC according to VDE 0207 Y12 or U18, AWG24}
 73
     1
 44
1.0
  0
CIRCLE
  5
3848
330
2
100
AcDbEntity
  8
0
 62
   255
100
AcDbCircle
 10
1984.345516464544
 20
-699.9411765321951
 30
0.0
 40
0.9
  0
CIRCLE
  5
384E
330
2
100
AcDbEntity
  8
0
 62
   255
100
AcDbCircle
 10
1978.701068538702
 20
-703.2000000616065
 30
0.0
 40
0.9
  0
CIRCLE
  5
384F
330
2
100
AcDbEntity
  8
0
 62
   255
100
AcDbCircle
 10
1978.701068538702
 20
-709.7176471204297
 30
0.0
 40
0.9
  0
CIRCLE
  5
3850
330
2
100
AcDbEntity
  8
0
 62
   255
100
AcDbCircle
 10
1984.345516464544
 20
-712.9764706498422
 30
0.0
 40
0.9
  0
CIRCLE
  5
3851
330
2
100
AcDbEntity
  8
0
 62
   255
100
AcDbCircle
 10
1989.989964390386
 20
-709.717647120431
 30
0.0
 40
0.9
  0
CIRCLE
  5
3852
330
2
100
AcDbEntity
  8
0
 62
   255
100
AcDbCircle
 10
1989.989964390386
 20
-703.2000000616076
 30
0.0
 40
0.9
  0
CIRCLE
  5
3853
330
2
100
AcDbEntity
  8
0
  6
CENTER
 62
     2
 48
0.3
370
    -3
100
AcDbCircle
 10
1984.345516464544
 20
-706.4588235910187
 30
0.0
 40
6.517647058823512
  0
DIMENSION
  5
3854
330
2
100
AcDbEntity
  8
0
 62
   255
100
AcDbDimension
  2
*D16
 10
1990.863163523367
 20
-721.3226706495611
 30
0.0
 11
1984.345516464544
 21
-719.6351706495611
 31
0.0
 70
    32
  1
%%C<>
 71
     5
 42
13.03529411764702
 73
     0
 74
     0
 75
     0
  3
DMST_1
100
AcDbAlignedDimension
 13
1977.827869405721
 23
-706.4588235910187
 33
0.0
 14
1990.863163523367
 24
-706.4588235910187
 34
0.0
100
AcDbRotatedDimension
1001
ACAD
1000
DSTYLE
1002
{
1070
   271
1070
     0
1070
   172
1070
     0
1070
    40
1040
0.75
1002
}
  0
LWPOLYLINE
  5
388E
330
2
100
AcDbEntity
  8
0
 62
     2
100
AcDbPolyline
 90
        4
 70
     1
 43
0.0
 10
1982.09878294374
 20
-718.4825809674402
 10
1986.452660514575
 20
-718.4825809674402
 10
1986.452660514575
 20
-720.9129820581892
 10
1982.09878294374
 20
-720.9129820581892
  0
DIMENSION
  5
388F
330
2
100
AcDbEntity
  8
0
 62
   255
100
AcDbDimension
  2
*D18
 10
1989.969045876309
 20
-703.1882353557246
 30
0.0
 11
1990.88447808162
 21
-695.0913869949345
 31
0.0
 70
    34
  1
6x<>
 71
     5
 42
1.044023621970699
 73
     0
 74
     0
 75
     0
  3
DMST_1
100
AcDb2LineAngularDimension
 13
1984.345516464544
 23
-715.5067278796547
 33
0.0
 14
1984.345516464544
 24
-697.4109193023824
 34
0.0
 15
1984.345516464544
 25
-706.4588235910187
 35
0.0
 16
1991.671782431107
 26
-697.6901056892391
 36
0.0
1001
ACAD
1000
DSTYLE
1002
{
1070
    40
1040
0.75
1002
}
  0
DIMENSION
  5
38A9
102
{ACAD_XDICTIONARY
360
3B61
102
}
330
2
100
AcDbEntity
  8
0
 62
   255
100
AcDbDimension
  2
*D19
 10
1985.243368760508
 20
-688.2283843032301
 30
0.0
 11
1970.258083842715
 21
-686.5946747840795
 31
0.0
 70
   160
  1
6xM2x3.1 min. depth
 71
     5
 42
1.795704591927914
 73
     0
 74
     0
 75
     0
  3
DMST_1
100
AcDbAlignedDimension
 13
1983.447664168581
 23
-700.0033155213137
 33
0.0
 14
1985.243368760508
 24
-700.0033155213138
 34
0.0
100
AcDbRotatedDimension
1001
ACAD
1000
DSTYLE
1002
{
1070
    40
1040
0.75
1070
   172
1070
     1
1070
   271
1070
     0
1002
}
  0
TOLERANCE
  5
390F
330
2
100
AcDbEntity
  8
0
 62
   255
100
AcDbFcf
  3
DMST_1
 10
1991.084057118604
 20
-688.2283843032301
 30
0.0
  1
{\Fgdt;j}%%v0.1%%v%%vA%%v%%v
1001
ACAD
1000
DSTYLE
1002
{
1070
    40
1040
0.75
1002
}
  0
LINE
  5
3910
330
2
100
AcDbEntity
  8
0
 62
     2
100
AcDbLine
 10
1988.993368760509
 20
-688.2283843032301
 30
0.0
 11
1991.084057118604
 21
-688.2283843032301
 31
0.0
  0
LWPOLYLINE
  5
3974
330
2
100
AcDbEntity
  8
0
  6
CENTER
 62
     2
 48
0.3
370
    -3
100
AcDbPolyline
 90
        2
 70
     0
 43
0.0
 10
2117.999999267587
 20
-715.5067278796547
 10
2117.999999267587
 20
-697.4109193023824
  0
LWPOLYLINE
  5
3976
330
2
100
AcDbEntity
  8
0
  6
CENTER
 62
     2
 48
0.3
370
    -3
100
AcDbPolyline
 90
        2
 70
     0
 43
0.0
 10
2127.047903556223
 20
-706.4588235910187
 10
2108.952094978951
 20
-706.4588235910187
  0
CIRCLE
  5
3977
330
2
100
AcDbEntity
  8
0
  6
CENTER
 62
     2
 48
0.3
370
    -3
100
AcDbCircle
 10
2117.999999267587
 20
-706.4588235910187
 30
0.0
 40
5.741176470588241
  0
DIMENSION
  5
397B
330
2
100
AcDbEntity
  8
0
 62
   255
100
AcDbDimension
  2
*D20
 10
2123.741175738175
 20
-688.1724277152844
 30
0.0
 11
2117.999999267587
 21
-686.4849277152845
 31
0.0
 70
    32
  1
%%C<>
 71
     5
 42
11.48235294117603
 73
     0
 74
     0
 75
     0
  3
DMST_1
100
AcDbAlignedDimension
 13
2112.258822796999
 23
-706.4588235910187
 33
0.0
 14
2123.741175738175
 24
-706.4588235910187
 34
0.0
100
AcDbRotatedDimension
1001
ACAD
1000
DSTYLE
1002
{
1070
    40
1040
0.75
1070
    47
1040
0.1
1070
    48
1040
0.1
1070
    71
1070
     1
1070
   146
1040
0.75
1070
   172
1070
     1
1070
   271
1070
     1
1070
   272
1070
     1
1002
}
  0
LEADER
  5
39F4
330
2
100
AcDbEntity
  8
0
 62
   255
100
AcDbLeader
  3
DMST_1
 73
     0
 75
     1
 40
1.875
 41
2.4375
 76
     3
 10
2111.776469855823
 20
-706.035294179254
 30
0.0
 10
2107.399711160939
 20
-701.7594278998379
 30
0.0
 10
2106.087211160938
 20
-701.7594278998379
 30
0.0
340
39F5
1001
ACAD
1000
DSTYLE
1002
{
1070
    41
1040
1.75
1070
    40
1040
0.75
1002
}
  0
MTEXT
  5
39F5
102
{ACAD_REACTORS
330
39F4
102
}
330
2
100
AcDbEntity
  8
0
 62
     3
100
AcDbMText
 10
2105.337211160938
 20
-701.0094278998381
 30
0.0
 40
1.875
 41
0.0
 46
0.0
 71
     9
 72
     1
  1
R1
 73
     1
 44
1.0
  0
DIMENSION
  5
3A05
330
2
100
AcDbEntity
  8
0
 62
   255
100
AcDbDimension
  2
*D21
 10
2123.741175738176
 20
-706.9529412380775
 30
0.0
 11
2130.358805382693
 21
-714.2837457910667
 31
0.0
 70
    34
 71
     5
 42
0.9571625935641987
 73
     0
 74
     0
 75
     0
  3
DMST_1
100
AcDb2LineAngularDimension
 13
2117.999999267587
 23
-706.4588235910187
 33
0.0
 14
2120.894116914646
 24
-711.4235294733718
 34
0.0
 15
2117.999999267587
 25
-706.4588235910187
 35
0.0
 16
2130.22313354727
 26
-717.265331598827
 36
0.0
1001
ACAD
1000
DSTYLE
1002
{
1070
    40
1040
0.75
1002
}
  0
DIMENSION
  5
3A14
330
2
100
AcDbEntity
  8
0
 62
   255
100
AcDbDimension
  2
*D22
 10
2120.894116914646
 20
-711.4235294733718
 30
0.0
 11
2110.725517835067
 21
-719.1196446317149
 31
0.0
 70
    34
 71
     5
 42
2.098576050797159
 73
     0
 74
     0
 75
     0
  3
DMST_1
100
AcDb2LineAngularDimension
 13
2127.047903556223
 23
-706.4588235910187
 33
0.0
 14
2108.952094978951
 24
-706.4588235910187
 34
0.0
 15
2117.999999267587
 25
-706.4588235910187
 35
0.0
 16
2105.536225978557
 26
-716.9468060706267
 36
0.0
1001
ACAD
1000
DSTYLE
1002
{
1070
    40
1040
0.75
1002
}
  0
DIMENSION
  5
3A23
330
2
100
AcDbEntity
  8
0
 62
   255
100
AcDbDimension
  2
*D23
 10
2114.705881620528
 20
-711.1647059439597
 30
0.0
 11
2108.922893264102
 21
-711.1848693147252
 31
0.0
 70
    34
 71
     5
 42
0.9600703624057583
 73
     0
 74
     0
 75
     0
  3
DMST_1
100
AcDb2LineAngularDimension
 13
2127.047903556223
 23
-706.4588235910187
 33
0.0
 14
2108.952094978951
 24
-706.4588235910187
 34
0.0
 15
2117.999999267587
 25
-706.4588235910187
 35
0.0
 16
2106.684027365373
 26
-710.2091113444948
 36
0.0
1001
ACAD
1000
DSTYLE
1002
{
1070
    40
1040
0.75
1002
}
  0
LINE
  5
3A51
330
2
100
AcDbEntity
  8
0
 62
     2
100
AcDbLine
 10
1979.69766416858
 20
-688.2283843032301
 30
0.0
 11
1958.31883216121
 21
-688.2283843032301
 31
0.0
  0
HATCH
  5
3B30
330
2
100
AcDbEntity
  8
0
 62
     2
100
AcDbHatch
 10
0.0
 20
0.0
 30
0.0
210
0.0
220
0.0
230
1.0
  2
SOLID
 70
     1
 71
     1
 91
        1
 92
        7
 72
     0
 73
     1
 93
        3
 10
2086.931292919917
 20
-708.813305524279
 10
2087.536936913346
 20
-707.9647059439596
 10
2086.325648926486
 20
-707.9647059439597
 97
        3
330
3B33
330
3B31
330
3B32
 75
     0
 76
     1
 47
0.025431757181045
 98
        1
 10
2086.840255438803
 20
-708.2452492102578
450
        0
451
        0
460
0.0
461
0.0
452
        1
462
1.0
453
        2
463
0.0
 63
     5
421
      255
463
1.0
 63
     7
421
 16777215
470
LINEAR
1001
ACAD
1010
0.0
1020
0.0
1030
0.0
1001
AcDbBlockRepETag
1070
     1
1071
        0
1005
3B30
  0
LINE
  5
3B31
102
{ACAD_REACTORS
330
3B30
102
}
330
2
100
AcDbEntity
  8
0
 62
     2
100
AcDbLine
 10
2087.536936913346
 20
-707.9647059439597
 30
0.0
 11
2086.325648926486
 21
-707.9647059439597
 31
0.0
1001
AcDbBlockRepETag
1070
     1
1071
        1
1005
3B31
  0
LINE
  5
3B32
102
{ACAD_REACTORS
330
3B30
102
}
330
2
100
AcDbEntity
  8
0
 62
     2
100
AcDbLine
 10
2086.931292919917
 20
-708.8133055242787
 30
0.0
 11
2086.325648926486
 21
-707.9647059439597
 31
0.0
1001
AcDbBlockRepETag
1070
     1
1071
        2
1005
3B32
  0
LINE
  5
3B33
102
{ACAD_REACTORS
330
3B30
102
}
330
2
100
AcDbEntity
  8
0
 62
     2
100
AcDbLine
 10
2086.931292919917
 20
-708.8133055242787
 30
0.0
 11
2087.536936913346
 21
-707.9647059439597
 31
0.0
1001
AcDbBlockRepETag
1070
     1
1071
        3
1005
3B33
  0
LINE
  5
3B34
330
2
100
AcDbEntity
  8
0
 62
     2
100
AcDbLine
 10
2086.931292919917
 20
-708.8133055242787
 30
0.0
 11
2086.931292919917
 21
-709.7465154032874
 31
0.0
1001
AcDbBlockRepETag
1070
     1
1071
        4
1005
3B34
  0
TOLERANCE
  5
3B35
330
2
100
AcDbEntity
  8
0
 62
     2
100
AcDbFcf
  3
Standard
 10
2085.951796854334
 20
-710.7775638933749
 30
0.0
  1
%%v%%v%%vA%%v%%v
1001
AcDbBlockRepETag
1070
     1
1071
        5
1005
3B35
1001
ACAD
1000
DSTYLE
1002
{
1070
   140
1040
1.031048490087608
1070
   147
1040
0.5155242450438048
1070
   178
1070
     3
1002
}
  0
LINE
  5
3B36
330
2
100
AcDbEntity
  8
0
 62
     2
100
AcDbLine
 10
2084.776469855823
 20
-707.9647059439597
 30
0.0
 11
2087.823639132587
 21
-707.9647059439597
 31
0.0
  0
ENDSEC
  0
SECTION
  2
OBJECTS
  0
DICTIONARY
  5
B
330
0
100
AcDbDictionary
281
     1
  3
ACAD_BACKGROUND
350
3AE
  3
ACAD_COLOR
350
47
  3
ACAD_GROUP
350
34
  3
ACAD_LAYOUT
350
18
  3
ACAD_MATERIAL
350
D
  3
ACAD_MLEADERSTYLE
350
101
  3
ACAD_MLINESTYLE
350
35
  3
ACAD_PLOTSETTINGS
350
36
  3
ACAD_PLOTSTYLENAME
350
A
  3
ACAD_SCALELIST
350
48
  3
ACAD_TABLESTYLE
350
49
  3
ACAD_VISUALSTYLE
350
2B
  3
ACDB_RECOMPOSE_DATA
350
457
  3
AcDbVariableDictionary
350
EA
  3
ASE_INDEX_DICTIONARY
350
313D
  0
DICTIONARY
  5
2C
330
28
100
AcDbDictionary
280
     1
281
     1
  0
DICTIONARY
  5
13F8
330
1E
100
AcDbDictionary
280
     1
281
     1
  3
ACAD_LAYERSTATES
360
13F9
  0
DICTIONARY
  5
7
330
6
100
AcDbDictionary
280
     1
281
     1
  3
ADSK_XREC_LAYER_RECONCILED
360
8
  0
DICTIONARY
  5
76
330
75
100
AcDbDictionary
280
     1
281
     1
  3
ADSK_XREC_LAYER_RECONCILED
360
77
  0
DICTIONARY
  5
3
330
2
100
AcDbDictionary
280
     1
281
     1
  3
ACAD_SORTENTS
360
DA
  0
DICTIONARY
  5
C5E
330
C5D
100
AcDbDictionary
280
     1
281
     1
  3
ACAD_SORTENTS
360
C5F
  0
DICTIONARY
  5
CD9
330
C9A
100
AcDbDictionary
280
     1
281
     1
  3
ACAD_SORTENTS
360
CDA
  0
DICTIONARY
  5
13B5
330
13B4
100
AcDbDictionary
280
     1
281
     1
  3
ACAD_SORTENTS
360
13B6
  0
DICTIONARY
  5
13BC
330
13BB
100
AcDbDictionary
280
     1
281
     1
  3
ACAD_SORTENTS
360
13BD
  0
DICTIONARY
  5
3026
330
2F44
100
AcDbDictionary
280
     1
281
     1
  3
ACAD_SORTENTS
360
3027
  0
DICTIONARY
  5
31C5
330
31A2
100
AcDbDictionary
280
     1
281
     1
  3
ACAD_SORTENTS
360
31C6
  0
DICTIONARY
  5
388A
330
3885
100
AcDbDictionary
280
     1
281
     1
  3
ACAD_SORTENTS
360
388B
  0
DICTIONARY
  5
3AA3
330
3A61
100
AcDbDictionary
280
     1
281
     1
  3
ACAD_SORTENTS
360
3AA4
  0
DICTIONARY
  5
3B2A
330
3B06
100
AcDbDictionary
280
     1
281
     1
  3
ACAD_SORTENTS
360
3B2B
  0
DICTIONARY
  5
3B13
330
3B11
100
AcDbDictionary
280
     1
281
     1
  3
ACAD_SORTENTS
360
3B14
  0
DICTIONARY
  5
4058
330
3A8A
100
AcDbDictionary
280
     1
281
     1
  3
ACAD_MTEXT_2008_RT
360
4059
  0
DICTIONARY
  5
3B61
330
38A9
100
AcDbDictionary
280
     1
281
     1
  3
ACAD_BREAKDATA
360
3B6D
  0
DICTIONARY
  5
3AE
102
{ACAD_REACTORS
330
B
102
}
330
B
100
AcDbDictionary
281
     1
  0
DICTIONARY
  5
47
102
{ACAD_REACTORS
330
B
102
}
330
B
100
AcDbDictionary
281
     1
  0
DICTIONARY
  5
34
102
{ACAD_REACTORS
330
B
102
}
330
B
100
AcDbDictionary
281
     1
  0
DICTIONARY
  5
18
102
{ACAD_REACTORS
330
B
102
}
330
B
100
AcDbDictionary
281
     1
  3
Layout1
350
1D
  3
Model
350
17
  0
DICTIONARY
  5
D
102
{ACAD_REACTORS
330
B
102
}
330
B
100
AcDbDictionary
281
     1
  3
ByBlock
350
3F
  3
ByLayer
350
37
  3
Global
350
C
  0
DICTIONARY
  5
101
102
{ACAD_REACTORS
330
B
102
}
330
B
100
AcDbDictionary
281
     1
  3
Standard
350
102
  0
DICTIONARY
  5
35
102
{ACAD_REACTORS
330
B
102
}
330
B
100
AcDbDictionary
281
     1
  3
Standard
350
4A
  0
DICTIONARY
  5
36
102
{ACAD_REACTORS
330
B
102
}
330
B
100
AcDbDictionary
281
     1
  0
ACDBDICTIONARYWDFLT
  5
A
102
{ACAD_REACTORS
330
B
102
}
330
B
100
AcDbDictionary
281
     1
  3
Normal
350
9
100
AcDbDictionaryWithDefault
340
9
  0
DICTIONARY
  5
48
102
{ACAD_REACTORS
330
B
102
}
330
B
100
AcDbDictionary
281
     1
  3
A0
350
4F
  3
A1
350
50
  3
A2
350
51
  3
A3
350
52
  3
A4
350
53
  3
A5
350
54
  3
A6
350
55
  3
A7
350
56
  3
A8
350
57
  3
A9
350
58
  3
B0
350
59
  3
B1
350
5A
  3
B2
350
5B
  3
B3
350
5C
  3
B4
350
5D
  3
B5
350
5E
  3
B6
350
5F
  3
B7
350
60
  3
B8
350
61
  3
B9
350
62
  3
C0
350
63
  3
C1
350
64
  3
C2
350
65
  3
C3
350
66
  3
C4
350
67
  3
C5
350
68
  3
C6
350
69
  3
C7
350
6A
  3
C8
350
6B
  3
C9
350
6C
  3
D0
350
6D
  3
D1
350
6E
  3
D2
350
6F
  0
DICTIONARY
  5
49
102
{ACAD_REACTORS
330
B
102
}
330
B
100
AcDbDictionary
281
     1
  3
Standard
350
4B
  0
DICTIONARY
  5
2B
102
{ACAD_REACTORS
330
B
102
}
330
B
100
AcDbDictionary
281
     1
  3
2dWireframe
350
2A
  3
3D Hidden
350
F9
  3
3dWireframe
350
4E
  3
Basic
350
F8
  3
Brighten
350
FC
  3
ColorChange
350
100
  3
Conceptual
350
FA
  3
Dim
350
FB
  3
EdgeColorOff
350
450
  3
Facepattern
350
FF
  3
Flat
350
F4
  3
FlatWithEdges
350
F5
  3
Gouraud
350
F6
  3
GouraudWithEdges
350
F7
  3
JitterOff
350
44E
  3
Linepattern
350
FE
  3
OverhangOff
350
44F
  3
Realistic
350
4D
  3
Thicken
350
FD
  0
XRECORD
  5
457
102
{ACAD_REACTORS
330
B
102
}
330
B
100
AcDbXrecord
280
     1
 90
        1
330
4B
330
3A8A
  0
DICTIONARY
  5
EA
102
{ACAD_REACTORS
330
B
102
}
330
B
100
AcDbDictionary
281
     1
  3
CANNOSCALE
350
EE
  3
CMLEADERSTYLE
350
EC
  3
CTABLESTYLE
350
EB
  3
DIMASSOC
350
F2
  3
HIDETEXT
350
F1
  3
INDEXCTL
350
F0
  3
LIGHTINGUNITS
350
44C
  3
MSLTSCALE
350
ED
  3
SORTENTS
350
EF
  3
XCLIPFRAME
350
488
  0
DICTIONARY
  5
313D
102
{ACAD_REACTORS
330
B
102
}
330
B
100
AcDbDictionary
281
     1
  3
ASEBlockHierarchyIndexRecord
350
313E
1001
DCO15
1040
1762500855.046
  0
DICTIONARY
  5
13F9
102
{ACAD_REACTORS
330
13F8
102
}
330
13F8
100
AcDbDictionary
281
     1
  0
XRECORD
  5
8
102
{ACAD_REACTORS
330
7
102
}
330
7
100
AcDbXrecord
280
     1
290
     1
  0
XRECORD
  5
77
102
{ACAD_REACTORS
330
76
102
}
330
76
100
AcDbXrecord
280
     1
290
     1
  0
SORTENTSTABLE
  5
DA
102
{ACAD_REACTORS
330
3
102
}
330
3
100
AcDbSortentsTable
330
2
331
35D4
  5
35F0
331
397B
  5
397B
331
363C
  5
36CE
331
3550
  5
3550
331
3519
  5
3519
331
3558
  5
3558
331
3521
  5
3521
331
3560
  5
3561
331
3568
  5
3569
331
3529
  5
3529
331
358F
  5
3593
331
35CE
  5
35D2
331
359F
  5
35A3
331
3B35
  5
3B35
331
35A7
  5
35AB
331
36DC
  5
36DC
331
3854
  5
3854
331
3839
  5
3839
331
3531
  5
3531
331
3539
  5
3539
331
3578
  5
3579
331
39F4
  5
39F4
331
3541
  5
3541
331
3580
  5
3584
331
3549
  5
3549
331
35AF
  5
35B3
331
35B7
  5
35BB
331
37F6
  5
37F6
331
35BF
  5
35C3
331
384E
  5
384E
331
35C7
  5
35CB
331
35D5
  5
35FD
331
3512
  5
3512
331
3551
  5
3551
331
3561
  5
3562
331
3522
  5
3522
331
352A
  5
352A
331
3569
  5
356A
331
3976
  5
3976
331
3588
  5
358C
331
35CF
  5
35D3
331
3590
  5
3594
331
35A0
  5
35A4
331
383A
  5
383A
331
3532
  5
3532
331
3571
  5
3572
331
3579
  5
357D
331
3836
  5
3836
331
353A
  5
353A
331
3581
  5
3585
331
39F5
  5
39F5
331
3542
  5
3542
331
354A
  5
354A
331
35A8
  5
35AC
331
35B0
  5
35B4
331
37EF
  5
37EF
331
37F7
  5
37F7
331
35B8
  5
35BC
331
35C0
  5
35C4
331
384F
  5
384F
331
35D6
  5
3604
331
3A05
  5
3A05
331
3552
  5
3552
331
3523
  5
3523
331
3562
  5
3563
331
356A
  5
356B
331
3977
  5
3977
331
352B
  5
352B
331
35C8
  5
35CC
331
3589
  5
358D
331
3591
  5
3595
331
390F
  5
390F
331
35A1
  5
35A5
331
383B
  5
383B
331
388E
  5
388E
331
3572
  5
3573
331
3533
  5
3533
331
353B
  5
353B
331
357A
  5
357F
331
3837
  5
3837
331
3543
  5
3543
331
3582
  5
3586
331
354B
  5
354B
331
35A9
  5
35AD
331
35B1
  5
35B5
331
37F0
  5
37F0
331
35B9
  5
35BD
331
3848
  5
3848
331
35C1
  5
35C5
331
3553
  5
3553
331
355B
  5
355C
331
3524
  5
3524
331
3563
  5
3564
331
352C
  5
352C
331
356B
  5
356C
331
358A
  5
358E
331
35C9
  5
35CD
331
3910
  5
3910
331
3592
  5
3596
331
3741
  5
3741
331
359A
  5
359E
331
35A2
  5
35A6
331
3749
  5
3749
331
3B30
  5
3B30
331
383C
  5
383C
331
388F
  5
388F
331
3534
  5
3534
331
3573
  5
3574
331
357B
  5
3580
331
353C
  5
353C
331
3583
  5
3587
331
3544
  5
3544
331
354C
  5
354C
331
35AA
  5
35AE
331
37E9
  5
37E9
331
37F1
  5
37F1
331
35B2
  5
35B6
331
35BA
  5
35BE
331
35C2
  5
35C6
331
35D0
  5
35D4
331
35F0
  5
363C
331
3554
  5
3554
331
355C
  5
355D
331
3564
  5
3565
331
356C
  5
356D
331
358B
  5
358F
331
35CA
  5
35CE
331
3593
  5
3597
331
3A51
  5
3A51
331
359B
  5
359F
331
3B31
  5
3B31
331
35A3
  5
35A7
331
37F8
  5
37F8
331
3A23
  5
3A23
331
3850
  5
3850
331
383D
  5
383D
331
3535
  5
3535
331
353D
  5
353D
331
3545
  5
3545
331
3584
  5
3588
331
354D
  5
354D
331
35AB
  5
35AF
331
35B3
  5
35B7
331
37F2
  5
37F2
331
35BB
  5
35BF
331
35C3
  5
35C7
331
35D1
  5
35D5
331
3555
  5
3555
331
355D
  5
355E
331
3565
  5
3566
331
356D
  5
356E
331
358C
  5
3590
331
35CB
  5
35CF
331
359C
  5
35A0
331
35A4
  5
35A8
331
3B32
  5
3B32
331
3A14
  5
3A14
331
3851
  5
3851
331
3536
  5
3536
331
3575
  5
3576
331
357D
  5
3581
331
353E
  5
353E
331
3546
  5
3546
331
3585
  5
3589
331
354E
  5
354E
331
35AC
  5
35B0
331
37F3
  5
37F3
331
35B4
  5
35B8
331
35BC
  5
35C0
331
35C4
  5
35C8
331
38A9
  5
38A9
331
35D2
  5
35D6
331
3556
  5
3556
331
355E
  5
355F
331
3566
  5
3567
331
356E
  5
356F
331
358D
  5
3591
331
35CC
  5
35D0
331
3604
  5
36CB
331
359D
  5
35A1
331
3B33
  5
3B33
331
35A5
  5
35A9
331
3852
  5
3852
331
3537
  5
3537
331
3576
  5
3577
331
353F
  5
353F
331
357E
  5
3582
331
3547
  5
3547
331
3586
  5
358A
331
354F
  5
354F
331
35AD
  5
35B1
331
37EC
  5
37EC
331
35B5
  5
35B9
331
35BD
  5
35C1
331
35C5
  5
35C9
331
35D3
  5
35E3
331
35E3
  5
3605
331
3510
  5
3510
331
3557
  5
3557
331
355F
  5
3560
331
3567
  5
3568
331
3974
  5
3974
331
356F
  5
3570
331
358E
  5
3592
331
35CD
  5
35D1
331
3605
  5
36CD
331
359E
  5
35A2
331
3B34
  5
3B34
331
35A6
  5
35AA
331
36DB
  5
357C
331
3838
  5
3838
331
3853
  5
3853
331
3538
  5
3538
331
3577
  5
3578
331
357F
  5
3583
331
3540
  5
3540
331
3548
  5
3548
331
3587
  5
358B
331
35AE
  5
35B2
331
37F5
  5
37F5
331
35B6
  5
35BA
331
35BE
  5
35C2
331
35C6
  5
35CA
  0
SORTENTSTABLE
  5
C5F
102
{ACAD_REACTORS
330
C5E
102
}
330
C5E
100
AcDbSortentsTable
330
C5D
  0
SORTENTSTABLE
  5
CDA
102
{ACAD_REACTORS
330
CD9
102
}
330
CD9
100
AcDbSortentsTable
330
C9A
  0
SORTENTSTABLE
  5
13B6
102
{ACAD_REACTORS
330
13B5
102
}
330
13B5
100
AcDbSortentsTable
330
13B4
  0
SORTENTSTABLE
  5
13BD
102
{ACAD_REACTORS
330
13BC
102
}
330
13BC
100
AcDbSortentsTable
330
13BB
  0
SORTENTSTABLE
  5
3027
102
{ACAD_REACTORS
330
3026
102
}
330
3026
100
AcDbSortentsTable
330
2F44
  0
SORTENTSTABLE
  5
31C6
102
{ACAD_REACTORS
330
31C5
102
}
330
31C5
100
AcDbSortentsTable
330
31A2
  0
SORTENTSTABLE
  5
388B
102
{ACAD_REACTORS
330
388A
102
}
330
388A
100
AcDbSortentsTable
330
3885
  0
SORTENTSTABLE
  5
3AA4
102
{ACAD_REACTORS
330
3AA3
102
}
330
3AA3
100
AcDbSortentsTable
330
3A61
331
3A69
  5
3A6B
331
3A8F
  5
3A96
331
3A71
  5
3A73
331
3A79
  5
3A7D
331
3A9F
  5
3AA0
331
3A81
  5
3A88
331
3A66
  5
3A68
331
3A96
  5
3A85
331
3A6A
  5
3A6C
331
3A88
  5
3A8F
331
3A98
  5
3A64
331
3A72
  5
3A74
331
3A7A
  5
3A7E
331
3A82
  5
3A89
331
3A97
  5
3A9C
331
3A67
  5
3A69
331
3A89
  5
3A90
331
3A6B
  5
3A6D
331
3A99
  5
3A9D
331
3A73
  5
3A75
331
3A7B
  5
3A7F
331
3A83
  5
3A8A
331
3AA0
  5
3AA1
331
3A90
  5
3A97
331
3A8A
  5
3A91
331
3A6C
  5
3A6E
331
3A9A
  5
3A76
331
3A74
  5
3A78
331
3A7C
  5
3A80
331
3A84
  5
3A8B
331
3AA1
  5
3A84
331
3A91
  5
3A98
331
3A8B
  5
3A92
331
3A6D
  5
3A6F
331
3A9B
  5
3A77
331
3A75
  5
3A79
331
3A7D
  5
3A81
331
3A85
  5
3A8C
331
3A92
  5
3A99
331
3A8C
  5
3A93
331
3A6E
  5
3A70
331
3A9C
  5
3A63
331
3A76
  5
3A7A
331
3A7E
  5
3A82
331
3A86
  5
3A8D
331
3A93
  5
3A9A
331
3A63
  5
3A65
331
3A8D
  5
3A94
331
3A6F
  5
3A71
331
3A9D
  5
3A9E
331
3A77
  5
3A7B
331
3A7F
  5
3A86
331
3A87
  5
3A8E
331
3A64
  5
3A66
331
3A94
  5
3A9B
331
3A68
  5
3A6A
331
3A8E
  5
3A95
331
3A70
  5
3A72
331
3A9E
  5
3A9F
331
3A78
  5
3A7C
331
3A80
  5
3A87
331
3A95
  5
3A83
331
3A65
  5
3A67
  0
SORTENTSTABLE
  5
3B2B
102
{ACAD_REACTORS
330
3B2A
102
}
330
3B2A
100
AcDbSortentsTable
330
3B06
  0
SORTENTSTABLE
  5
3B14
102
{ACAD_REACTORS
330
3B13
102
}
330
3B13
100
AcDbSortentsTable
330
3B11
  0
XRECORD
  5
4059
102
{ACAD_REACTORS
330
4058
102
}
330
4058
100
AcDbXrecord
280
     1
 40
283676.0
  1
\pxsm1,qc;{\fISOCPEUR|b0|i0|c0|p34;\W1;Description\POutline drawing}
  0
BREAKDATA
  5
3B6D
102
{ACAD_REACTORS
330
3B61
102
}
330
3B61
100
AcDbBreakData
 70
     0
330
38A9
 90
        1
100
AcDbBreakPointRef
 71
     2
 72
     0
 91
        1
 10
1985.243368760508
 20
-694.6827565782434
 30
0.0
 11
1985.243368760508
 21
-695.5634547348473
 31
0.0
  0
LAYOUT
  5
1D
102
{ACAD_REACTORS
330
18
102
}
330
18
100
AcDbPlotSettings
  1

  2
Microsoft Office Document Image Writer
  4

  6

 40
0.0
 41
0.0
 42
0.0
 43
0.0
 44
0.0
 45
0.0
 46
0.0
 47
0.0
 48
0.0
 49
0.0
140
0.0
141
0.0
142
1.0
143
1.0
 70
   688
 72
     0
 73
     0
 74
     5
  7
C:\Documents and Settings\sandesh.gangan\Application Data\Autodesk\AutoCAD 2008\R17.1\enu\Plot Styles\SANDESH.ctb
 75
    16
147
1.0
 76
     0
 77
     2
 78
   300
148
0.0
149
0.0
100
AcDbLayout
  1
Layout1
 70
     1
 71
     1
 10
0.0
 20
0.0
 11
12.0
 21
9.0
 12
0.0
 22
0.0
 32
0.0
 14
1.000000000000000E+20
 24
1.000000000000000E+20
 34
1.000000000000000E+20
 15
-1.000000000000000E+20
 25
-1.000000000000000E+20
 35
-1.000000000000000E+20
146
0.0
 13
0.0
 23
0.0
 33
0.0
 16
1.0
 26
0.0
 36
0.0
 17
0.0
 27
1.0
 37
0.0
 76
     0
330
1A
  0
LAYOUT
  5
17
102
{ACAD_REACTORS
330
18
102
}
330
18
100
AcDbPlotSettings
  1

  2
Microsoft Office Document Image Writer
  4
Letter
  6

 40
3.174999952316283
 41
3.174999952316283
 42
3.175003051757812
 43
3.17498779296875
 44
215.8999938964844
 45
279.3999938964844
 46
0.0
 47
0.0
 48
0.0
 49
0.0
140
0.0
141
0.0
142
1.0
143
99.94531217785944
 70
 11952
 72
     0
 73
     1
 74
     0
  7
C:\Documents and Settings\sandesh.gangan\Application Data\Autodesk\AutoCAD 2008\R17.1\enu\Plot Styles\SANDESH.ctb
 75
     0
147
0.0100054717746084
 76
     0
 77
     2
 78
   300
148
-22372.71202410412
149
-1032.354704324351
100
AcDbLayout
  1
Model
 70
     1
 71
     0
 10
0.0
 20
0.0
 11
12.0
 21
9.0
 12
0.0
 22
0.0
 32
0.0
 14
0.0
 24
0.0
 34
0.0
 15
0.0
 25
0.0
 35
0.0
146
0.0
 13
0.0
 23
0.0
 33
0.0
 16
1.0
 26
0.0
 36
0.0
 17
0.0
 27
1.0
 37
0.0
 76
     0
330
2
331
29
1001
ACAD_PSEXT
1000
Microsoft Office Document Image Writer
1000
Microsoft Office Document Image Writer Driver
1000
Microsoft Document Imaging Writer Port:
1000

1070
     0
  0
MATERIAL
  5
3F
102
{ACAD_XDICTIONARY
360
40
102
}
102
{ACAD_REACTORS
330
D
102
}
330
D
100
AcDbMaterial
  1
ByBlock
 72
     0
 43
0.0208333333333333
 43
0.0
 43
0.0
 43
0.0
 43
0.0
 43
0.0208333333333333
 43
0.0
 43
0.0
 43
0.0
 43
0.0
 43
1.0
 43
0.0
 43
0.0
 43
0.0
 43
0.0
 43
1.0
 77
     0
 47
0.0208333333333333
 47
0.0
 47
0.0
 47
0.0
 47
0.0
 47
0.0208333333333333
 47
0.0
 47
0.0
 47
0.0
 47
0.0
 47
1.0
 47
0.0
 47
0.0
 47
0.0
 47
0.0
 47
1.0
171
     0
 49
0.0208333333333333
 49
0.0
 49
0.0
 49
0.0
 49
0.0
 49
0.0208333333333333
 49
0.0
 49
0.0
 49
0.0
 49
0.0
 49
1.0
 49
0.0
 49
0.0
 49
0.0
 49
0.0
 49
1.0
175
     0
142
0.0208333333333333
142
0.0
142
0.0
142
0.0
142
0.0
142
0.0208333333333333
142
0.0
142
0.0
142
0.0
142
0.0
142
1.0
142
0.0
142
0.0
142
0.0
142
0.0
142
1.0
179
     0
144
0.0208333333333333
144
0.0
144
0.0
144
0.0
144
0.0
144
0.0208333333333333
144
0.0
144
0.0
144
0.0
144
0.0
144
1.0
144
0.0
144
0.0
144
0.0
144
0.0
144
1.0
147
0.0208333333333333
147
0.0
147
0.0
147
0.0
147
0.0
147
0.0208333333333333
147
0.0
147
0.0
147
0.0
147
0.0
147
1.0
147
0.0
147
0.0
147
0.0
147
0.0
147
1.0
  0
MATERIAL
  5
37
102
{ACAD_XDICTIONARY
360
38
102
}
102
{ACAD_REACTORS
330
D
102
}
330
D
100
AcDbMaterial
  1
ByLayer
 72
     0
 43
0.0208333333333333
 43
0.0
 43
0.0
 43
0.0
 43
0.0
 43
0.0208333333333333
 43
0.0
 43
0.0
 43
0.0
 43
0.0
 43
1.0
 43
0.0
 43
0.0
 43
0.0
 43
0.0
 43
1.0
 77
     0
 47
0.0208333333333333
 47
0.0
 47
0.0
 47
0.0
 47
0.0
 47
0.0208333333333333
 47
0.0
 47
0.0
 47
0.0
 47
0.0
 47
1.0
 47
0.0
 47
0.0
 47
0.0
 47
0.0
 47
1.0
171
     0
 49
0.0208333333333333
 49
0.0
 49
0.0
 49
0.0
 49
0.0
 49
0.0208333333333333
 49
0.0
 49
0.0
 49
0.0
 49
0.0
 49
1.0
 49
0.0
 49
0.0
 49
0.0
 49
0.0
 49
1.0
175
     0
142
0.0208333333333333
142
0.0
142
0.0
142
0.0
142
0.0
142
0.0208333333333333
142
0.0
142
0.0
142
0.0
142
0.0
142
1.0
142
0.0
142
0.0
142
0.0
142
0.0
142
1.0
179
     0
144
0.0208333333333333
144
0.0
144
0.0
144
0.0
144
0.0
144
0.0208333333333333
144
0.0
144
0.0
144
0.0
144
0.0
144
1.0
144
0.0
144
0.0
144
0.0
144
0.0
144
1.0
147
0.0208333333333333
147
0.0
147
0.0
147
0.0
147
0.0
147
0.0208333333333333
147
0.0
147
0.0
147
0.0
147
0.0
147
1.0
147
0.0
147
0.0
147
0.0
147
0.0
147
1.0
  0
MATERIAL
  5
C
102
{ACAD_XDICTIONARY
360
E
102
}
102
{ACAD_REACTORS
330
D
102
}
330
D
100
AcDbMaterial
  1
Global
 72
     0
 43
0.0208333333333333
 43
0.0
 43
0.0
 43
0.0
 43
0.0
 43
0.0208333333333333
 43
0.0
 43
0.0
 43
0.0
 43
0.0
 43
1.0
 43
0.0
 43
0.0
 43
0.0
 43
0.0
 43
1.0
 77
     0
 47
0.0208333333333333
 47
0.0
 47
0.0
 47
0.0
 47
0.0
 47
0.0208333333333333
 47
0.0
 47
0.0
 47
0.0
 47
0.0
 47
1.0
 47
0.0
 47
0.0
 47
0.0
 47
0.0
 47
1.0
171
     0
 49
0.0208333333333333
 49
0.0
 49
0.0
 49
0.0
 49
0.0
 49
0.0208333333333333
 49
0.0
 49
0.0
 49
0.0
 49
0.0
 49
1.0
 49
0.0
 49
0.0
 49
0.0
 49
0.0
 49
1.0
175
     0
142
0.0208333333333333
142
0.0
142
0.0
142
0.0
142
0.0
142
0.0208333333333333
142
0.0
142
0.0
142
0.0
142
0.0
142
1.0
142
0.0
142
0.0
142
0.0
142
0.0
142
1.0
179
     0
144
0.0208333333333333
144
0.0
144
0.0
144
0.0
144
0.0
144
0.0208333333333333
144
0.0
144
0.0
144
0.0
144
0.0
144
1.0
144
0.0
144
0.0
144
0.0
144
0.0
144
1.0
147
0.0208333333333333
147
0.0
147
0.0
147
0.0
147
0.0
147
0.0208333333333333
147
0.0
147
0.0
147
0.0
147
0.0
147
1.0
147
0.0
147
0.0
147
0.0
147
0.0
147
1.0
  0
MLEADERSTYLE
  5
102
102
{ACAD_REACTORS
330
101
102
}
330
101
100
AcDbMLeaderStyle
170
     2
171
     1
172
     0
 90
        2
 40
0.0
 41
0.0
173
     1
 91
-1056964608
340
24
 92
       -2
290
     1
 42
0.09
291
     1
 43
0.36
  3
Standard
 44
0.18
300

342
20
174
     1
178
     6
175
     1
176
     0
 93
-1056964608
 45
0.18
292
     0
297
     0
 46
0.18
 94
-1056964608
 47
1.0
 49
1.0
140
1.0
293
     1
141
0.0
294
     1
177
     0
142
1.0
295
     0
296
     0
143
0.125
1001
ACAD_MLEADERVER
1070
     2
  0
MLINESTYLE
  5
4A
102
{ACAD_REACTORS
330
35
102
}
330
35
100
AcDbMlineStyle
  2
STANDARD
 70
     0
  3

 62
   256
 51
90.0
 52
90.0
 71
     2
 49
0.5
 62
   256
  6
BYLAYER
 49
-0.5
 62
   256
  6
BYLAYER
  0
ACDBPLACEHOLDER
  5
9
102
{ACAD_REACTORS
330
A
102
}
330
A
  0
SCALE
  5
4F
102
{ACAD_REACTORS
330
48
102
}
330
48
100
AcDbScale
 70
     0
300
1:1
140
1.0
141
1.0
290
     1
  0
SCALE
  5
50
102
{ACAD_REACTORS
330
48
102
}
330
48
100
AcDbScale
 70
     0
300
1:2
140
1.0
141
2.0
290
     0
  0
SCALE
  5
51
102
{ACAD_REACTORS
330
48
102
}
330
48
100
AcDbScale
 70
     0
300
1:4
140
1.0
141
4.0
290
     0
  0
SCALE
  5
52
102
{ACAD_REACTORS
330
48
102
}
330
48
100
AcDbScale
 70
     0
300
1:5
140
1.0
141
5.0
290
     0
  0
SCALE
  5
53
102
{ACAD_REACTORS
330
48
102
}
330
48
100
AcDbScale
 70
     0
300
1:8
140
1.0
141
8.0
290
     0
  0
SCALE
  5
54
102
{ACAD_REACTORS
330
48
102
}
330
48
100
AcDbScale
 70
     0
300
1:10
140
1.0
141
10.0
290
     0
  0
SCALE
  5
55
102
{ACAD_REACTORS
330
48
102
}
330
48
100
AcDbScale
 70
     0
300
1:16
140
1.0
141
16.0
290
     0
  0
SCALE
  5
56
102
{ACAD_REACTORS
330
48
102
}
330
48
100
AcDbScale
 70
     0
300
1:20
140
1.0
141
20.0
290
     0
  0
SCALE
  5
57
102
{ACAD_REACTORS
330
48
102
}
330
48
100
AcDbScale
 70
     0
300
1:30
140
1.0
141
30.0
290
     0
  0
SCALE
  5
58
102
{ACAD_REACTORS
330
48
102
}
330
48
100
AcDbScale
 70
     0
300
1:40
140
1.0
141
40.0
290
     0
  0
SCALE
  5
59
102
{ACAD_REACTORS
330
48
102
}
330
48
100
AcDbScale
 70
     0
300
1:50
140
1.0
141
50.0
290
     0
  0
SCALE
  5
5A
102
{ACAD_REACTORS
330
48
102
}
330
48
100
AcDbScale
 70
     0
300
1:100
140
1.0
141
100.0
290
     0
  0
SCALE
  5
5B
102
{ACAD_REACTORS
330
48
102
}
330
48
100
AcDbScale
 70
     0
300
2:1
140
2.0
141
1.0
290
     0
  0
SCALE
  5
5C
102
{ACAD_REACTORS
330
48
102
}
330
48
100
AcDbScale
 70
     0
300
4:1
140
4.0
141
1.0
290
     0
  0
SCALE
  5
5D
102
{ACAD_REACTORS
330
48
102
}
330
48
100
AcDbScale
 70
     0
300
8:1
140
8.0
141
1.0
290
     0
  0
SCALE
  5
5E
102
{ACAD_REACTORS
330
48
102
}
330
48
100
AcDbScale
 70
     0
300
10:1
140
10.0
141
1.0
290
     0
  0
SCALE
  5
5F
102
{ACAD_REACTORS
330
48
102
}
330
48
100
AcDbScale
 70
     0
300
100:1
140
100.0
141
1.0
290
     0
  0
SCALE
  5
60
102
{ACAD_REACTORS
330
48
102
}
330
48
100
AcDbScale
 70
     0
300
1/128" = 1'-0"
140
0.0078125
141
12.0
290
     0
  0
SCALE
  5
61
102
{ACAD_REACTORS
330
48
102
}
330
48
100
AcDbScale
 70
     0
300
1/64" = 1'-0"
140
0.015625
141
12.0
290
     0
  0
SCALE
  5
62
102
{ACAD_REACTORS
330
48
102
}
330
48
100
AcDbScale
 70
     0
300
1/32" = 1'-0"
140
0.03125
141
12.0
290
     0
  0
SCALE
  5
63
102
{ACAD_REACTORS
330
48
102
}
330
48
100
AcDbScale
 70
     0
300
1/16" = 1'-0"
140
0.0625
141
12.0
290
     0
  0
SCALE
  5
64
102
{ACAD_REACTORS
330
48
102
}
330
48
100
AcDbScale
 70
     0
300
3/32" = 1'-0"
140
0.09375
141
12.0
290
     0
  0
SCALE
  5
65
102
{ACAD_REACTORS
330
48
102
}
330
48
100
AcDbScale
 70
     0
300
1/8" = 1'-0"
140
0.125
141
12.0
290
     0
  0
SCALE
  5
66
102
{ACAD_REACTORS
330
48
102
}
330
48
100
AcDbScale
 70
     0
300
3/16" = 1'-0"
140
0.1875
141
12.0
290
     0
  0
SCALE
  5
67
102
{ACAD_REACTORS
330
48
102
}
330
48
100
AcDbScale
 70
     0
300
1/4" = 1'-0"
140
0.25
141
12.0
290
     0
  0
SCALE
  5
68
102
{ACAD_REACTORS
330
48
102
}
330
48
100
AcDbScale
 70
     0
300
3/8" = 1'-0"
140
0.375
141
12.0
290
     0
  0
SCALE
  5
69
102
{ACAD_REACTORS
330
48
102
}
330
48
100
AcDbScale
 70
     0
300
1/2" = 1'-0"
140
0.5
141
12.0
290
     0
  0
SCALE
  5
6A
102
{ACAD_REACTORS
330
48
102
}
330
48
100
AcDbScale
 70
     0
300
3/4" = 1'-0"
140
0.75
141
12.0
290
     0
  0
SCALE
  5
6B
102
{ACAD_REACTORS
330
48
102
}
330
48
100
AcDbScale
 70
     0
300
1" = 1'-0"
140
1.0
141
12.0
290
     0
  0
SCALE
  5
6C
102
{ACAD_REACTORS
330
48
102
}
330
48
100
AcDbScale
 70
     0
300
1-1/2" = 1'-0"
140
1.5
141
12.0
290
     0
  0
SCALE
  5
6D
102
{ACAD_REACTORS
330
48
102
}
330
48
100
AcDbScale
 70
     0
300
3" = 1'-0"
140
3.0
141
12.0
290
     0
  0
SCALE
  5
6E
102
{ACAD_REACTORS
330
48
102
}
330
48
100
AcDbScale
 70
     0
300
6" = 1'-0"
140
6.0
141
12.0
290
     0
  0
SCALE
  5
6F
102
{ACAD_REACTORS
330
48
102
}
330
48
100
AcDbScale
 70
     0
300
1'-0" = 1'-0"
140
12.0
141
12.0
290
     0
  0
TABLESTYLE
  5
4B
102
{ACAD_XDICTIONARY
360
4C
102
}
102
{ACAD_REACTORS
330
49
102
}
330
49
100
AcDbTableStyle
  3
Standard
 70
     0
 71
     0
 40
0.06
 41
0.06
280
     0
281
     0
  7
STANDARD
140
0.18
170
     2
 62
     0
 63
     7
283
     0
 90
      512
 91
        0
  1

274
    -2
284
     1
 64
     0
275
    -2
285
     1
 65
     0
276
    -2
286
     1
 66
     0
277
    -2
287
     1
 67
     0
278
    -2
288
     1
 68
     0
279
    -2
289
     1
 69
     0
  7
STANDARD
140
0.25
170
     5
 62
     0
 63
     7
283
     0
 90
      512
 91
        0
  1

274
    -2
284
     1
 64
     0
275
    -2
285
     1
 65
     0
276
    -2
286
     1
 66
     0
277
    -2
287
     1
 67
     0
278
    -2
288
     1
 68
     0
279
    -2
289
     1
 69
     0
  7
STANDARD
140
0.18
170
     5
 62
     0
 63
     7
283
     0
 90
      512
 91
        0
  1

274
    -2
284
     1
 64
     0
275
    -2
285
     1
 65
     0
276
    -2
286
     1
 66
     0
277
    -2
287
     1
 67
     0
278
    -2
288
     1
 68
     0
279
    -2
289
     1
 69
     0
  0
VISUALSTYLE
  5
2A
102
{ACAD_XDICTIONARY
360
45F
102
}
102
{ACAD_REACTORS
330
2B
102
}
330
2B
100
AcDbVisualStyle
  2
2dWireframe
 70
     4
 71
     0
 72
     2
 73
     0
 90
        0
 40
-0.6
 41
-30.0
 62
     5
 63
     7
 74
     1
 91
        4
 64
     7
 65
   257
 75
     1
175
     1
 42
1.0
 92
        0
 66
   257
 43
1.0
 76
     1
 77
     6
 78
     2
 67
     7
 79
     5
170
     0
171
     0
290
     0
174
     0
 93
        1
 44
0.0
173
     0
291
     0
 45
0.0
  0
VISUALSTYLE
  5
F9
102
{ACAD_XDICTIONARY
360
472
102
}
102
{ACAD_REACTORS
330
2B
102
}
330
2B
100
AcDbVisualStyle
  2
3D Hidden
 70
     6
 71
     1
 72
     2
 73
     2
 90
        0
 40
-0.6
 41
-30.0
 62
     5
 63
     7
 74
     2
 91
        2
 64
     7
 65
   257
 75
     2
175
     1
 42
40.0
 92
        0
 66
   257
 43
1.0
 76
     1
 77
     6
 78
     2
 67
     7
 79
     3
170
     0
171
     0
290
     0
174
     0
 93
        1
 44
0.0
173
     0
291
     0
 45
0.0
  0
VISUALSTYLE
  5
4E
102
{ACAD_XDICTIONARY
360
466
102
}
102
{ACAD_REACTORS
330
2B
102
}
330
2B
100
AcDbVisualStyle
  2
3dWireframe
 70
     5
 71
     0
 72
     2
 73
     0
 90
        0
 40
-0.6
 41
-30.0
 62
     5
 63
     7
 74
     1
 91
        4
 64
     7
 65
   257
 75
     1
175
     1
 42
1.0
 92
        0
 66
   257
 43
1.0
 76
     1
 77
     6
 78
     2
 67
     7
 79
     5
170
     0
171
     0
290
     0
174
     0
 93
        1
 44
0.0
173
     0
291
     0
 45
0.0
  0
VISUALSTYLE
  5
F8
102
{ACAD_XDICTIONARY
360
470
102
}
102
{ACAD_REACTORS
330
2B
102
}
330
2B
100
AcDbVisualStyle
  2
Basic
 70
     7
 71
     1
 72
     0
 73
     1
 90
        0
 40
-0.6
 41
-30.0
 62
     5
 63
     7
 74
     0
 91
        4
 64
     7
 65
   257
 75
     1
175
     1
 42
1.0
 92
        8
 66
     7
 43
1.0
 76
     1
 77
     6
 78
     2
 67
     7
 79
     5
170
     0
171
     0
290
     0
174
     0
 93
        1
 44
0.0
173
     0
291
     1
 45
0.0
  0
VISUALSTYLE
  5
FC
102
{ACAD_XDICTIONARY
360
478
102
}
102
{ACAD_REACTORS
330
2B
102
}
330
2B
100
AcDbVisualStyle
  2
Brighten
 70
    12
 71
     2
 72
     2
 73
     0
 90
        0
 40
-0.6
 41
-30.0
 62
     5
 63
     7
 74
     1
 91
        4
 64
     7
 65
   257
 75
     1
175
     1
 42
1.0
 92
        8
 66
     7
 43
1.0
 76
     1
 77
     6
 78
     2
 67
     7
 79
     5
170
     0
171
     0
290
     0
174
     0
 93
        1
 44
50.0
173
     0
291
     1
 45
0.0
  0
VISUALSTYLE
  5
100
102
{ACAD_XDICTIONARY
360
480
102
}
102
{ACAD_REACTORS
330
2B
102
}
330
2B
100
AcDbVisualStyle
  2
ColorChange
 70
    16
 71
     2
 72
     2
 73
     3
 90
        0
 40
-0.6
 41
-30.0
 62
     5
 63
     8
 74
     1
 91
        4
 64
     7
 65
   257
 75
     1
175
     1
 42
1.0
 92
        8
 66
     8
 43
1.0
 76
     1
 77
     6
 78
     2
 67
     7
 79
     5
170
     0
171
     0
290
     0
174
     0
 93
        1
 44
0.0
173
     0
291
     1
 45
0.0
  0
VISUALSTYLE
  5
FA
102
{ACAD_XDICTIONARY
360
474
102
}
102
{ACAD_REACTORS
330
2B
102
}
330
2B
100
AcDbVisualStyle
  2
Conceptual
 70
     9
 71
     3
 72
     2
 73
     0
 90
        0
 40
-0.6
 41
-30.0
 62
     5
 63
     7
 74
     2
 91
        2
 64
     7
 65
   257
 75
     1
175
     1
 42
40.0
 92
        8
 66
     7
 43
1.0
 76
     1
 77
     6
 78
     2
 67
     7
 79
     3
170
     0
171
     0
290
     0
174
     0
 93
        1
 44
0.0
173
     0
291
     0
 45
0.0
  0
VISUALSTYLE
  5
FB
102
{ACAD_XDICTIONARY
360
476
102
}
102
{ACAD_REACTORS
330
2B
102
}
330
2B
100
AcDbVisualStyle
  2
Dim
 70
    11
 71
     2
 72
     2
 73
     0
 90
        0
 40
-0.6
 41
-30.0
 62
     5
 63
     7
 74
     1
 91
        4
 64
     7
 65
   257
 75
     1
175
     1
 42
1.0
 92
        8
 66
     7
 43
1.0
 76
     1
 77
     6
 78
     2
 67
     7
 79
     5
170
     0
171
     0
290
     0
174
     0
 93
        1
 44
-50.0
173
     0
291
     1
 45
0.0
  0
VISUALSTYLE
  5
450
102
{ACAD_XDICTIONARY
360
486
102
}
102
{ACAD_REACTORS
330
2B
102
}
330
2B
100
AcDbVisualStyle
  2
EdgeColorOff
 70
    22
 71
     2
 72
     2
 73
     0
 90
        0
 40
-0.6
 41
-30.0
 62
     5
 63
     7
 74
     1
 91
        4
 64
     7
 65
   257
 75
     1
175
     1
 42
1.0
 92
        8
 66
     7
 43
1.0
 76
     1
 77
     6
 78
     2
 67
     7
 79
     5
170
     0
171
     0
290
     0
174
     0
 93
        1
 44
0.0
173
     0
291
     1
 45
0.0
  0
VISUALSTYLE
  5
FF
102
{ACAD_XDICTIONARY
360
47E
102
}
102
{ACAD_REACTORS
330
2B
102
}
330
2B
100
AcDbVisualStyle
  2
Facepattern
 70
    15
 71
     2
 72
     2
 73
     0
 90
        0
 40
-0.6
 41
-30.0
 62
     5
 63
     7
 74
     1
 91
        4
 64
     7
 65
   257
 75
     1
175
     1
 42
1.0
 92
        8
 66
     7
 43
1.0
 76
     1
 77
     6
 78
     2
 67
     7
 79
     5
170
     0
171
     0
290
     0
174
     0
 93
        1
 44
0.0
173
     0
291
     1
 45
0.0
  0
VISUALSTYLE
  5
F4
102
{ACAD_XDICTIONARY
360
468
102
}
102
{ACAD_REACTORS
330
2B
102
}
330
2B
100
AcDbVisualStyle
  2
Flat
 70
     0
 71
     2
 72
     1
 73
     1
 90
        2
 40
-0.6
 41
30.0
 62
     5
 63
     7
 74
     0
 91
        4
 64
     7
 65
   257
 75
     1
175
     1
 42
1.0
 92
        8
 66
     7
 43
1.0
 76
     1
 77
     6
 78
     2
 67
     7
 79
     5
170
     0
171
     0
290
     0
174
     0
 93
       13
 44
0.0
173
     0
291
     1
 45
0.0
  0
VISUALSTYLE
  5
F5
102
{ACAD_XDICTIONARY
360
46A
102
}
102
{ACAD_REACTORS
330
2B
102
}
330
2B
100
AcDbVisualStyle
  2
FlatWithEdges
 70
     1
 71
     2
 72
     1
 73
     1
 90
        2
 40
-0.6
 41
30.0
 62
     5
 63
     7
 74
     1
 91
        4
 64
     7
 65
   257
 75
     1
175
     1
 42
1.0
 92
        0
 66
   257
 43
1.0
 76
     1
 77
     6
 78
     2
 67
     7
 79
     5
170
     0
171
     0
290
     0
174
     0
 93
       13
 44
0.0
173
     0
291
     1
 45
0.0
  0
VISUALSTYLE
  5
F6
102
{ACAD_XDICTIONARY
360
46C
102
}
102
{ACAD_REACTORS
330
2B
102
}
330
2B
100
AcDbVisualStyle
  2
Gouraud
 70
     2
 71
     2
 72
     2
 73
     1
 90
        2
 40
-0.6
 41
30.0
 62
     5
 63
     7
 74
     0
 91
        4
 64
     7
 65
   257
 75
     1
175
     1
 42
1.0
 92
        0
 66
     7
 43
1.0
 76
     1
 77
     6
 78
     2
 67
     7
 79
     5
170
     0
171
     0
290
     0
174
     0
 93
       13
 44
0.0
173
     0
291
     1
 45
0.0
  0
VISUALSTYLE
  5
F7
102
{ACAD_XDICTIONARY
360
46E
102
}
102
{ACAD_REACTORS
330
2B
102
}
330
2B
100
AcDbVisualStyle
  2
GouraudWithEdges
 70
     3
 71
     2
 72
     2
 73
     1
 90
        2
 40
-0.6
 41
30.0
 62
     5
 63
     7
 74
     1
 91
        4
 64
     7
 65
   257
 75
     1
175
     1
 42
1.0
 92
        0
 66
   257
 43
1.0
 76
     1
 77
     6
 78
     2
 67
     7
 79
     5
170
     0
171
     0
290
     0
174
     0
 93
       13
 44
0.0
173
     0
291
     1
 45
0.0
  0
VISUALSTYLE
  5
44E
102
{ACAD_XDICTIONARY
360
482
102
}
102
{ACAD_REACTORS
330
2B
102
}
330
2B
100
AcDbVisualStyle
  2
JitterOff
 70
    20
 71
     2
 72
     2
 73
     0
 90
        0
 40
-0.6
 41
-30.0
 62
     5
 63
     7
 74
     1
 91
        4
 64
     7
 65
   257
 75
     1
175
     1
 42
1.0
 92
       10
 66
     7
 43
1.0
 76
     1
 77
     6
 78
     2
 67
     7
 79
     5
170
     0
171
     0
290
     0
174
     0
 93
        1
 44
0.0
173
     0
291
     1
 45
0.0
  0
VISUALSTYLE
  5
FE
102
{ACAD_XDICTIONARY
360
47C
102
}
102
{ACAD_REACTORS
330
2B
102
}
330
2B
100
AcDbVisualStyle
  2
Linepattern
 70
    14
 71
     2
 72
     2
 73
     0
 90
        0
 40
-0.6
 41
-30.0
 62
     5
 63
     7
 74
     1
 91
        4
 64
     7
 65
   257
 75
     7
175
     7
 42
1.0
 92
        8
 66
     7
 43
1.0
 76
     1
 77
     6
 78
     2
 67
     7
 79
     5
170
     0
171
     0
290
     0
174
     0
 93
        1
 44
0.0
173
     0
291
     1
 45
0.0
  0
VISUALSTYLE
  5
44F
102
{ACAD_XDICTIONARY
360
484
102
}
102
{ACAD_REACTORS
330
2B
102
}
330
2B
100
AcDbVisualStyle
  2
OverhangOff
 70
    21
 71
     2
 72
     2
 73
     0
 90
        0
 40
-0.6
 41
-30.0
 62
     5
 63
     7
 74
     1
 91
        4
 64
     7
 65
   257
 75
     1
175
     1
 42
1.0
 92
        9
 66
     7
 43
1.0
 76
     1
 77
     6
 78
     2
 67
     7
 79
     5
170
     0
171
     0
290
     0
174
     0
 93
        1
 44
0.0
173
     0
291
     1
 45
0.0
  0
VISUALSTYLE
  5
4D
102
{ACAD_XDICTIONARY
360
464
102
}
102
{ACAD_REACTORS
330
2B
102
}
330
2B
100
AcDbVisualStyle
  2
Realistic
 70
     8
 71
     2
 72
     2
 73
     0
 90
        0
 40
-0.6
 41
-30.0
 62
     5
 63
     7
 74
     1
 91
        0
 64
     7
 65
   257
 75
     1
175
     1
 42
1.0
 92
        8
 66
     8
 43
1.0
 76
     1
 77
     6
 78
     2
 67
     7
 79
     5
170
     0
171
     0
290
     0
174
     0
 93
       13
 44
0.0
173
     0
291
     0
 45
0.0
  0
VISUALSTYLE
  5
FD
102
{ACAD_XDICTIONARY
360
47A
102
}
102
{ACAD_REACTORS
330
2B
102
}
330
2B
100
AcDbVisualStyle
  2
Thicken
 70
    13
 71
     2
 72
     2
 73
     0
 90
        0
 40
-0.6
 41
-30.0
 62
     5
 63
     7
 74
     1
 91
        4
 64
     7
 65
   257
 75
     1
175
     1
 42
1.0
 92
       12
 66
     7
 43
1.0
 76
     1
 77
     6
 78
     2
 67
     7
 79
     5
170
     0
171
     0
290
     0
174
     0
 93
        1
 44
0.0
173
     0
291
     1
 45
0.0
  0
DICTIONARYVAR
  5
EE
102
{ACAD_REACTORS
330
EA
102
}
330
EA
100
DictionaryVariables
280
     0
  1
1:1
  0
DICTIONARYVAR
  5
EC
102
{ACAD_REACTORS
330
EA
102
}
330
EA
100
DictionaryVariables
280
     0
  1
STANDARD
  0
DICTIONARYVAR
  5
EB
102
{ACAD_REACTORS
330
EA
102
}
330
EA
100
DictionaryVariables
280
     0
  1
STANDARD
  0
DICTIONARYVAR
  5
F2
102
{ACAD_REACTORS
330
EA
102
}
330
EA
100
DictionaryVariables
280
     0
  1
1
  0
DICTIONARYVAR
  5
F1
102
{ACAD_REACTORS
330
EA
102
}
330
EA
100
DictionaryVariables
280
     0
  1
1
  0
DICTIONARYVAR
  5
F0
102
{ACAD_REACTORS
330
EA
102
}
330
EA
100
DictionaryVariables
280
     0
  1
0
  0
DICTIONARYVAR
  5
44C
102
{ACAD_REACTORS
330
EA
102
}
330
EA
100
DictionaryVariables
280
     0
  1
0
  0
DICTIONARYVAR
  5
ED
102
{ACAD_REACTORS
330
EA
102
}
330
EA
100
DictionaryVariables
280
     0
  1
1
  0
DICTIONARYVAR
  5
EF
102
{ACAD_REACTORS
330
EA
102
}
330
EA
100
DictionaryVariables
280
     0
  1
127
  0
DICTIONARYVAR
  5
488
102
{ACAD_REACTORS
330
EA
102
}
330
EA
100
DictionaryVariables
280
     0
  1
0
  0
XRECORD
  5
313E
102
{ACAD_REACTORS
330
313D
102
}
330
313D
100
AcDbXrecord
280
     1
330
0
330
CD2
330
13BF
330
0
330
0
330
0
330
0
330
0
330
0
330
0
330
0
330
0
330
0
330
0
330
0
330
0
330
0
330
0
330
0
330
0
330
0
330
0
330
0
330
0
330
0
330
0
330
0
330
0
330
0
330
0
330
0
330
0
330
0
330
0
330
0
330
0
330
0
330
0
330
0
330
0
330
0
330
0
  0
DICTIONARY
  5
40
330
3F
100
AcDbDictionary
280
     1
281
     1
  3
BUMPTILE
360
41
  3
DIFFUSETILE
360
42
  3
OPACITYTILE
360
43
  3
REFLECTIONTILE
360
44
  3
REFRACTIONTILE
360
45
  3
SPECULARTILE
360
46
  0
DICTIONARY
  5
38
330
37
100
AcDbDictionary
280
     1
281
     1
  3
BUMPTILE
360
39
  3
DIFFUSETILE
360
3A
  3
OPACITYTILE
360
3B
  3
REFLECTIONTILE
360
3C
  3
REFRACTIONTILE
360
3D
  3
SPECULARTILE
360
3E
  0
DICTIONARY
  5
E
330
C
100
AcDbDictionary
280
     1
281
     1
  3
BUMPTILE
360
F
  3
DIFFUSETILE
360
10
  3
OPACITYTILE
360
11
  3
REFLECTIONTILE
360
12
  3
REFRACTIONTILE
360
13
  3
SPECULARTILE
360
14
  0
DICTIONARY
  5
4C
330
4B
100
AcDbDictionary
280
     1
281
     1
  3
ACAD_ROUNDTRIP_2008_TABLESTYLE_CELLSTYLEMAP
360
4057
  0
DICTIONARY
  5
45F
330
2A
100
AcDbDictionary
280
     1
281
     1
  3
ACAD_XREC_ROUNDTRIP
360
460
  0
DICTIONARY
  5
472
330
F9
100
AcDbDictionary
280
     1
281
     1
  3
ACAD_XREC_ROUNDTRIP
360
473
  0
DICTIONARY
  5
466
330
4E
100
AcDbDictionary
280
     1
281
     1
  3
ACAD_XREC_ROUNDTRIP
360
467
  0
DICTIONARY
  5
470
330
F8
100
AcDbDictionary
280
     1
281
     1
  3
ACAD_XREC_ROUNDTRIP
360
471
  0
DICTIONARY
  5
478
330
FC
100
AcDbDictionary
280
     1
281
     1
  3
ACAD_XREC_ROUNDTRIP
360
479
  0
DICTIONARY
  5
480
330
100
100
AcDbDictionary
280
     1
281
     1
  3
ACAD_XREC_ROUNDTRIP
360
481
  0
DICTIONARY
  5
474
330
FA
100
AcDbDictionary
280
     1
281
     1
  3
ACAD_XREC_ROUNDTRIP
360
475
  0
DICTIONARY
  5
476
330
FB
100
AcDbDictionary
280
     1
281
     1
  3
ACAD_XREC_ROUNDTRIP
360
477
  0
DICTIONARY
  5
486
330
450
100
AcDbDictionary
280
     1
281
     1
  3
ACAD_XREC_ROUNDTRIP
360
487
  0
DICTIONARY
  5
47E
330
FF
100
AcDbDictionary
280
     1
281
     1
  3
ACAD_XREC_ROUNDTRIP
360
47F
  0
DICTIONARY
  5
468
330
F4
100
AcDbDictionary
280
     1
281
     1
  3
ACAD_XREC_ROUNDTRIP
360
469
  0
DICTIONARY
  5
46A
330
F5
100
AcDbDictionary
280
     1
281
     1
  3
ACAD_XREC_ROUNDTRIP
360
46B
  0
DICTIONARY
  5
46C
330
F6
100
AcDbDictionary
280
     1
281
     1
  3
ACAD_XREC_ROUNDTRIP
360
46D
  0
DICTIONARY
  5
46E
330
F7
100
AcDbDictionary
280
     1
281
     1
  3
ACAD_XREC_ROUNDTRIP
360
46F
  0
DICTIONARY
  5
482
330
44E
100
AcDbDictionary
280
     1
281
     1
  3
ACAD_XREC_ROUNDTRIP
360
483
  0
DICTIONARY
  5
47C
330
FE
100
AcDbDictionary
280
     1
281
     1
  3
ACAD_XREC_ROUNDTRIP
360
47D
  0
DICTIONARY
  5
484
330
44F
100
AcDbDictionary
280
     1
281
     1
  3
ACAD_XREC_ROUNDTRIP
360
485
  0
DICTIONARY
  5
464
330
4D
100
AcDbDictionary
280
     1
281
     1
  3
ACAD_XREC_ROUNDTRIP
360
465
  0
DICTIONARY
  5
47A
330
FD
100
AcDbDictionary
280
     1
281
     1
  3
ACAD_XREC_ROUNDTRIP
360
47B
  0
XRECORD
  5
41
102
{ACAD_REACTORS
330
40
102
}
330
40
100
AcDbXrecord
280
     1
270
     1
271
     1
  0
XRECORD
  5
42
102
{ACAD_REACTORS
330
40
102
}
330
40
100
AcDbXrecord
280
     1
270
     1
271
     1
  0
XRECORD
  5
43
102
{ACAD_REACTORS
330
40
102
}
330
40
100
AcDbXrecord
280
     1
270
     1
271
     1
  0
XRECORD
  5
44
102
{ACAD_REACTORS
330
40
102
}
330
40
100
AcDbXrecord
280
     1
270
     1
271
     1
  0
XRECORD
  5
45
102
{ACAD_REACTORS
330
40
102
}
330
40
100
AcDbXrecord
280
     1
270
     1
271
     1
  0
XRECORD
  5
46
102
{ACAD_REACTORS
330
40
102
}
330
40
100
AcDbXrecord
280
     1
270
     1
271
     1
  0
XRECORD
  5
39
102
{ACAD_REACTORS
330
38
102
}
330
38
100
AcDbXrecord
280
     1
270
     1
271
     1
  0
XRECORD
  5
3A
102
{ACAD_REACTORS
330
38
102
}
330
38
100
AcDbXrecord
280
     1
270
     1
271
     1
  0
XRECORD
  5
3B
102
{ACAD_REACTORS
330
38
102
}
330
38
100
AcDbXrecord
280
     1
270
     1
271
     1
  0
XRECORD
  5
3C
102
{ACAD_REACTORS
330
38
102
}
330
38
100
AcDbXrecord
280
     1
270
     1
271
     1
  0
XRECORD
  5
3D
102
{ACAD_REACTORS
330
38
102
}
330
38
100
AcDbXrecord
280
     1
270
     1
271
     1
  0
XRECORD
  5
3E
102
{ACAD_REACTORS
330
38
102
}
330
38
100
AcDbXrecord
280
     1
270
     1
271
     1
  0
XRECORD
  5
F
102
{ACAD_REACTORS
330
E
102
}
330
E
100
AcDbXrecord
280
     1
270
     1
271
     1
  0
XRECORD
  5
10
102
{ACAD_REACTORS
330
E
102
}
330
E
100
AcDbXrecord
280
     1
270
     1
271
     1
  0
XRECORD
  5
11
102
{ACAD_REACTORS
330
E
102
}
330
E
100
AcDbXrecord
280
     1
270
     1
271
     1
  0
XRECORD
  5
12
102
{ACAD_REACTORS
330
E
102
}
330
E
100
AcDbXrecord
280
     1
270
     1
271
     1
  0
XRECORD
  5
13
102
{ACAD_REACTORS
330
E
102
}
330
E
100
AcDbXrecord
280
     1
270
     1
271
     1
  0
XRECORD
  5
14
102
{ACAD_REACTORS
330
E
102
}
330
E
100
AcDbXrecord
280
     1
270
     1
271
     1
  0
CELLSTYLEMAP
  5
4057
102
{ACAD_REACTORS
330
4C
102
}
330
4C
100
AcDbCellStyleMap
 90
        3
300
CELLSTYLE
  1
TABLEFORMAT_BEGIN
 90
        5
170
     1
 91
        0
 92
    32768
 62
   257
 93
        1
300
CONTENTFORMAT
  1
CONTENTFORMAT_BEGIN
 90
        0
 91
        0
 92
      512
 93
        0
300

 40
0.0
140
1.0
 94
        5
 62
     0
340
20
144
0.25
309
CONTENTFORMAT_END
171
     1
301
MARGIN
  1
CELLMARGIN_BEGIN
 40
0.06
 40
0.06
 40
0.06
 40
0.06
 40
0.18
 40
0.18
309
CELLMARGIN_END
 94
        6
 95
        1
302
GRIDFORMAT
  1
GRIDFORMAT_BEGIN
 90
        0
 91
        1
 62
     0
 92
       -2
340
0
 93
        0
 40
0.045
309
GRIDFORMAT_END
 95
        2
302
GRIDFORMAT
  1
GRIDFORMAT_BEGIN
 90
        0
 91
        1
 62
     0
 92
       -2
340
0
 93
        0
 40
0.045
309
GRIDFORMAT_END
 95
        4
302
GRIDFORMAT
  1
GRIDFORMAT_BEGIN
 90
        0
 91
        1
 62
     0
 92
       -2
340
0
 93
        0
 40
0.045
309
GRIDFORMAT_END
 95
        8
302
GRIDFORMAT
  1
GRIDFORMAT_BEGIN
 90
        0
 91
        1
 62
     0
 92
       -2
340
0
 93
        0
 40
0.045
309
GRIDFORMAT_END
 95
       16
302
GRIDFORMAT
  1
GRIDFORMAT_BEGIN
 90
        0
 91
        1
 62
     0
 92
       -2
340
0
 93
        0
 40
0.045
309
GRIDFORMAT_END
 95
       32
302
GRIDFORMAT
  1
GRIDFORMAT_BEGIN
 90
        0
 91
        1
 62
     0
 92
       -2
340
0
 93
        0
 40
0.045
309
GRIDFORMAT_END
309
TABLEFORMAT_END
  1
CELLSTYLE_BEGIN
 90
        1
 91
        1
300
_TITLE
309
CELLSTYLE_END
300
CELLSTYLE
  1
TABLEFORMAT_BEGIN
 90
        5
170
     1
 91
        0
 92
        0
 62
   257
 93
        1
300
CONTENTFORMAT
  1
CONTENTFORMAT_BEGIN
 90
        0
 91
        0
 92
      512
 93
        0
300

 40
0.0
140
1.0
 94
        5
 62
     0
340
20
144
0.18
309
CONTENTFORMAT_END
171
     1
301
MARGIN
  1
CELLMARGIN_BEGIN
 40
0.06
 40
0.06
 40
0.06
 40
0.06
 40
0.18
 40
0.18
309
CELLMARGIN_END
 94
        6
 95
        1
302
GRIDFORMAT
  1
GRIDFORMAT_BEGIN
 90
        0
 91
        1
 62
     0
 92
       -2
340
0
 93
        0
 40
0.045
309
GRIDFORMAT_END
 95
        2
302
GRIDFORMAT
  1
GRIDFORMAT_BEGIN
 90
        0
 91
        1
 62
     0
 92
       -2
340
0
 93
        0
 40
0.045
309
GRIDFORMAT_END
 95
        4
302
GRIDFORMAT
  1
GRIDFORMAT_BEGIN
 90
        0
 91
        1
 62
     0
 92
       -2
340
0
 93
        0
 40
0.045
309
GRIDFORMAT_END
 95
        8
302
GRIDFORMAT
  1
GRIDFORMAT_BEGIN
 90
        0
 91
        1
 62
     0
 92
       -2
340
0
 93
        0
 40
0.045
309
GRIDFORMAT_END
 95
       16
302
GRIDFORMAT
  1
GRIDFORMAT_BEGIN
 90
        0
 91
        1
 62
     0
 92
       -2
340
0
 93
        0
 40
0.045
309
GRIDFORMAT_END
 95
       32
302
GRIDFORMAT
  1
GRIDFORMAT_BEGIN
 90
        0
 91
        1
 62
     0
 92
       -2
340
0
 93
        0
 40
0.045
309
GRIDFORMAT_END
309
TABLEFORMAT_END
  1
CELLSTYLE_BEGIN
 90
        2
 91
        1
300
_HEADER
309
CELLSTYLE_END
300
CELLSTYLE
  1
TABLEFORMAT_BEGIN
 90
        5
170
     1
 91
        0
 92
        0
 62
   257
 93
        1
300
CONTENTFORMAT
  1
CONTENTFORMAT_BEGIN
 90
        0
 91
        0
 92
      512
 93
        0
300

 40
0.0
140
1.0
 94
        2
 62
     0
340
20
144
0.18
309
CONTENTFORMAT_END
171
     1
301
MARGIN
  1
CELLMARGIN_BEGIN
 40
0.06
 40
0.06
 40
0.06
 40
0.06
 40
0.18
 40
0.18
309
CELLMARGIN_END
 94
        6
 95
        1
302
GRIDFORMAT
  1
GRIDFORMAT_BEGIN
 90
        0
 91
        1
 62
     0
 92
       -2
340
0
 93
        0
 40
0.045
309
GRIDFORMAT_END
 95
        2
302
GRIDFORMAT
  1
GRIDFORMAT_BEGIN
 90
        0
 91
        1
 62
     0
 92
       -2
340
0
 93
        0
 40
0.045
309
GRIDFORMAT_END
 95
        4
302
GRIDFORMAT
  1
GRIDFORMAT_BEGIN
 90
        0
 91
        1
 62
     0
 92
       -2
340
0
 93
        0
 40
0.045
309
GRIDFORMAT_END
 95
        8
302
GRIDFORMAT
  1
GRIDFORMAT_BEGIN
 90
        0
 91
        1
 62
     0
 92
       -2
340
0
 93
        0
 40
0.045
309
GRIDFORMAT_END
 95
       16
302
GRIDFORMAT
  1
GRIDFORMAT_BEGIN
 90
        0
 91
        1
 62
     0
 92
       -2
340
0
 93
        0
 40
0.045
309
GRIDFORMAT_END
 95
       32
302
GRIDFORMAT
  1
GRIDFORMAT_BEGIN
 90
        0
 91
        1
 62
     0
 92
       -2
340
0
 93
        0
 40
0.045
309
GRIDFORMAT_END
309
TABLEFORMAT_END
  1
CELLSTYLE_BEGIN
 90
        3
 91
        2
300
_DATA
309
CELLSTYLE_END
  0
XRECORD
  5
460
102
{ACAD_REACTORS
330
45F
102
}
330
45F
100
AcDbXrecord
280
     1
102
RTVSPropertyOp0
 70
     1
102
RTVSPropertyOp1
 70
     1
102
RTVSPropertyOp2
 70
     1
102
RTVSPropertyOp3
 70
     1
102
RTVSPropertyOp4
 70
     1
102
RTVSPropertyOp5
 70
     1
102
RTVSPropertyOp6
 70
     1
102
RTVSPropertyOp7
 70
     1
102
RTVSPropertyOp8
 70
     1
102
RTVSPropertyOp9
 70
     1
102
RTVSPropertyOp10
 70
     1
102
RTVSPropertyOp11
 70
     1
102
RTVSPropertyOp12
 70
     1
102
RTVSPropertyOp13
 70
     1
102
RTVSPropertyOp14
 70
     1
102
RTVSPropertyOp15
 70
     1
102
RTVSPropertyOp16
 70
     1
102
RTVSPropertyOp17
 70
     1
102
RTVSPropertyOp18
 70
     1
102
RTVSPropertyOp19
 70
     1
102
RTVSPropertyOp20
 70
     1
102
RTVSPropertyOp21
 70
     1
102
RTVSPropertyOp22
 70
     1
102
RTVSPropertyOp23
 70
     1
102
RTVSPropertyOp24
 70
     1
102
RTVSPropertyOp25
 70
     1
102
RTVSPropertyOp26
 70
     1
102
RTVSPropertyOp27
 70
     1
  0
XRECORD
  5
473
102
{ACAD_REACTORS
330
472
102
}
330
472
100
AcDbXrecord
280
     1
102
RTVSPropertyOp0
 70
     1
102
RTVSPropertyOp1
 70
     1
102
RTVSPropertyOp2
 70
     1
102
RTVSPropertyOp3
 70
     1
102
RTVSPropertyOp4
 70
     1
102
RTVSPropertyOp5
 70
     1
102
RTVSPropertyOp6
 70
     1
102
RTVSPropertyOp7
 70
     1
102
RTVSPropertyOp8
 70
     1
102
RTVSPropertyOp9
 70
     1
102
RTVSPropertyOp10
 70
     1
102
RTVSPropertyOp11
 70
     1
102
RTVSPropertyOp12
 70
     1
102
RTVSPropertyOp13
 70
     1
102
RTVSPropertyOp14
 70
     1
102
RTVSPropertyOp15
 70
     1
102
RTVSPropertyOp16
 70
     1
102
RTVSPropertyOp17
 70
     1
102
RTVSPropertyOp18
 70
     1
102
RTVSPropertyOp19
 70
     1
102
RTVSPropertyOp20
 70
     1
102
RTVSPropertyOp21
 70
     1
102
RTVSPropertyOp22
 70
     1
102
RTVSPropertyOp23
 70
     1
102
RTVSPropertyOp24
 70
     1
102
RTVSPropertyOp25
 70
     1
102
RTVSPropertyOp26
 70
     1
102
RTVSPropertyOp27
 70
     1
  0
XRECORD
  5
467
102
{ACAD_REACTORS
330
466
102
}
330
466
100
AcDbXrecord
280
     1
102
RTVSPropertyOp0
 70
     1
102
RTVSPropertyOp1
 70
     1
102
RTVSPropertyOp2
 70
     1
102
RTVSPropertyOp3
 70
     1
102
RTVSPropertyOp4
 70
     1
102
RTVSPropertyOp5
 70
     1
102
RTVSPropertyOp6
 70
     1
102
RTVSPropertyOp7
 70
     1
102
RTVSPropertyOp8
 70
     1
102
RTVSPropertyOp9
 70
     1
102
RTVSPropertyOp10
 70
     1
102
RTVSPropertyOp11
 70
     1
102
RTVSPropertyOp12
 70
     1
102
RTVSPropertyOp13
 70
     1
102
RTVSPropertyOp14
 70
     1
102
RTVSPropertyOp15
 70
     1
102
RTVSPropertyOp16
 70
     1
102
RTVSPropertyOp17
 70
     1
102
RTVSPropertyOp18
 70
     1
102
RTVSPropertyOp19
 70
     1
102
RTVSPropertyOp20
 70
     1
102
RTVSPropertyOp21
 70
     1
102
RTVSPropertyOp22
 70
     1
102
RTVSPropertyOp23
 70
     1
102
RTVSPropertyOp24
 70
     1
102
RTVSPropertyOp25
 70
     1
102
RTVSPropertyOp26
 70
     1
102
RTVSPropertyOp27
 70
     1
  0
XRECORD
  5
471
102
{ACAD_REACTORS
330
470
102
}
330
470
100
AcDbXrecord
280
     1
102
RTVSPropertyOp0
 70
     1
102
RTVSPropertyOp1
 70
     1
102
RTVSPropertyOp2
 70
     1
102
RTVSPropertyOp3
 70
     1
102
RTVSPropertyOp4
 70
     1
102
RTVSPropertyOp5
 70
     1
102
RTVSPropertyOp6
 70
     1
102
RTVSPropertyOp7
 70
     1
102
RTVSPropertyOp8
 70
     1
102
RTVSPropertyOp9
 70
     1
102
RTVSPropertyOp10
 70
     1
102
RTVSPropertyOp11
 70
     1
102
RTVSPropertyOp12
 70
     1
102
RTVSPropertyOp13
 70
     1
102
RTVSPropertyOp14
 70
     1
102
RTVSPropertyOp15
 70
     1
102
RTVSPropertyOp16
 70
     1
102
RTVSPropertyOp17
 70
     1
102
RTVSPropertyOp18
 70
     1
102
RTVSPropertyOp19
 70
     1
102
RTVSPropertyOp20
 70
     1
102
RTVSPropertyOp21
 70
     1
102
RTVSPropertyOp22
 70
     1
102
RTVSPropertyOp23
 70
     1
102
RTVSPropertyOp24
 70
     1
102
RTVSPropertyOp25
 70
     1
102
RTVSPropertyOp26
 70
     1
102
RTVSPropertyOp27
 70
     1
  0
XRECORD
  5
479
102
{ACAD_REACTORS
330
478
102
}
330
478
100
AcDbXrecord
280
     1
102
RTVSPropertyOp0
 70
     1
102
RTVSPropertyOp1
 70
     1
102
RTVSPropertyOp2
 70
     1
102
RTVSPropertyOp3
 70
     1
102
RTVSPropertyOp4
 70
     1
102
RTVSPropertyOp5
 70
     1
102
RTVSPropertyOp6
 70
     1
102
RTVSPropertyOp7
 70
     1
102
RTVSPropertyOp8
 70
     1
102
RTVSPropertyOp9
 70
     1
102
RTVSPropertyOp10
 70
     1
102
RTVSPropertyOp11
 70
     1
102
RTVSPropertyOp12
 70
     1
102
RTVSPropertyOp13
 70
     1
102
RTVSPropertyOp14
 70
     1
102
RTVSPropertyOp15
 70
     1
102
RTVSPropertyOp16
 70
     1
102
RTVSPropertyOp17
 70
     1
102
RTVSPropertyOp18
 70
     1
102
RTVSPropertyOp19
 70
     1
102
RTVSPropertyOp20
 70
     1
102
RTVSPropertyOp21
 70
     1
102
RTVSPropertyOp22
 70
     1
102
RTVSPropertyOp23
 70
     1
102
RTVSPropertyOp24
 70
     1
102
RTVSPropertyOp25
 70
     1
102
RTVSPropertyOp26
 70
     1
102
RTVSPropertyOp27
 70
     1
  0
XRECORD
  5
481
102
{ACAD_REACTORS
330
480
102
}
330
480
100
AcDbXrecord
280
     1
102
RTVSPropertyOp0
 70
     1
102
RTVSPropertyOp1
 70
     1
102
RTVSPropertyOp2
 70
     1
102
RTVSPropertyOp3
 70
     1
102
RTVSPropertyOp4
 70
     1
102
RTVSPropertyOp5
 70
     1
102
RTVSPropertyOp6
 70
     1
102
RTVSPropertyOp7
 70
     1
102
RTVSPropertyOp8
 70
     1
102
RTVSPropertyOp9
 70
     1
102
RTVSPropertyOp10
 70
     1
102
RTVSPropertyOp11
 70
     1
102
RTVSPropertyOp12
 70
     1
102
RTVSPropertyOp13
 70
     1
102
RTVSPropertyOp14
 70
     1
102
RTVSPropertyOp15
 70
     1
102
RTVSPropertyOp16
 70
     1
102
RTVSPropertyOp17
 70
     1
102
RTVSPropertyOp18
 70
     1
102
RTVSPropertyOp19
 70
     1
102
RTVSPropertyOp20
 70
     1
102
RTVSPropertyOp21
 70
     1
102
RTVSPropertyOp22
 70
     1
102
RTVSPropertyOp23
 70
     1
102
RTVSPropertyOp24
 70
     1
102
RTVSPropertyOp25
 70
     1
102
RTVSPropertyOp26
 70
     1
102
RTVSPropertyOp27
 70
     1
  0
XRECORD
  5
475
102
{ACAD_REACTORS
330
474
102
}
330
474
100
AcDbXrecord
280
     1
102
RTVSPropertyOp0
 70
     1
102
RTVSPropertyOp1
 70
     1
102
RTVSPropertyOp2
 70
     1
102
RTVSPropertyOp3
 70
     1
102
RTVSPropertyOp4
 70
     1
102
RTVSPropertyOp5
 70
     1
102
RTVSPropertyOp6
 70
     1
102
RTVSPropertyOp7
 70
     1
102
RTVSPropertyOp8
 70
     1
102
RTVSPropertyOp9
 70
     1
102
RTVSPropertyOp10
 70
     1
102
RTVSPropertyOp11
 70
     1
102
RTVSPropertyOp12
 70
     1
102
RTVSPropertyOp13
 70
     1
102
RTVSPropertyOp14
 70
     1
102
RTVSPropertyOp15
 70
     1
102
RTVSPropertyOp16
 70
     1
102
RTVSPropertyOp17
 70
     1
102
RTVSPropertyOp18
 70
     1
102
RTVSPropertyOp19
 70
     1
102
RTVSPropertyOp20
 70
     1
102
RTVSPropertyOp21
 70
     1
102
RTVSPropertyOp22
 70
     1
102
RTVSPropertyOp23
 70
     1
102
RTVSPropertyOp24
 70
     1
102
RTVSPropertyOp25
 70
     1
102
RTVSPropertyOp26
 70
     1
102
RTVSPropertyOp27
 70
     1
  0
XRECORD
  5
477
102
{ACAD_REACTORS
330
476
102
}
330
476
100
AcDbXrecord
280
     1
102
RTVSPropertyOp0
 70
     1
102
RTVSPropertyOp1
 70
     1
102
RTVSPropertyOp2
 70
     1
102
RTVSPropertyOp3
 70
     1
102
RTVSPropertyOp4
 70
     1
102
RTVSPropertyOp5
 70
     1
102
RTVSPropertyOp6
 70
     1
102
RTVSPropertyOp7
 70
     1
102
RTVSPropertyOp8
 70
     1
102
RTVSPropertyOp9
 70
     1
102
RTVSPropertyOp10
 70
     1
102
RTVSPropertyOp11
 70
     1
102
RTVSPropertyOp12
 70
     1
102
RTVSPropertyOp13
 70
     1
102
RTVSPropertyOp14
 70
     1
102
RTVSPropertyOp15
 70
     1
102
RTVSPropertyOp16
 70
     1
102
RTVSPropertyOp17
 70
     1
102
RTVSPropertyOp18
 70
     1
102
RTVSPropertyOp19
 70
     1
102
RTVSPropertyOp20
 70
     1
102
RTVSPropertyOp21
 70
     1
102
RTVSPropertyOp22
 70
     1
102
RTVSPropertyOp23
 70
     1
102
RTVSPropertyOp24
 70
     1
102
RTVSPropertyOp25
 70
     1
102
RTVSPropertyOp26
 70
     1
102
RTVSPropertyOp27
 70
     1
  0
XRECORD
  5
487
102
{ACAD_REACTORS
330
486
102
}
330
486
100
AcDbXrecord
280
     1
102
RTVSPropertyOp0
 70
     0
102
RTVSPropertyOp1
 70
     0
102
RTVSPropertyOp2
 70
     0
102
RTVSPropertyOp3
 70
     0
102
RTVSPropertyOp4
 70
     0
102
RTVSPropertyOp5
 70
     0
102
RTVSPropertyOp6
 70
     0
102
RTVSPropertyOp7
 70
     0
102
RTVSPropertyOp8
 70
     0
102
RTVSPropertyOp9
 70
     0
102
RTVSPropertyOp10
 70
     0
102
RTVSPropertyOp11
 70
     0
102
RTVSPropertyOp12
 70
     0
102
RTVSPropertyOp13
 70
     0
102
RTVSPropertyOp14
 70
     2
102
RTVSPropertyOp15
 70
     0
102
RTVSPropertyOp16
 70
     0
102
RTVSPropertyOp17
 70
     0
102
RTVSPropertyOp18
 70
     0
102
RTVSPropertyOp19
 70
     0
102
RTVSPropertyOp20
 70
     0
102
RTVSPropertyOp21
 70
     0
102
RTVSPropertyOp22
 70
     0
102
RTVSPropertyOp23
 70
     0
102
RTVSPropertyOp24
 70
     0
102
RTVSPropertyOp25
 70
     0
102
RTVSPropertyOp26
 70
     0
102
RTVSPropertyOp27
 70
     0
  0
XRECORD
  5
47F
102
{ACAD_REACTORS
330
47E
102
}
330
47E
100
AcDbXrecord
280
     1
102
RTVSPropertyOp0
 70
     1
102
RTVSPropertyOp1
 70
     1
102
RTVSPropertyOp2
 70
     1
102
RTVSPropertyOp3
 70
     1
102
RTVSPropertyOp4
 70
     1
102
RTVSPropertyOp5
 70
     1
102
RTVSPropertyOp6
 70
     1
102
RTVSPropertyOp7
 70
     1
102
RTVSPropertyOp8
 70
     1
102
RTVSPropertyOp9
 70
     1
102
RTVSPropertyOp10
 70
     1
102
RTVSPropertyOp11
 70
     1
102
RTVSPropertyOp12
 70
     1
102
RTVSPropertyOp13
 70
     1
102
RTVSPropertyOp14
 70
     1
102
RTVSPropertyOp15
 70
     1
102
RTVSPropertyOp16
 70
     1
102
RTVSPropertyOp17
 70
     1
102
RTVSPropertyOp18
 70
     1
102
RTVSPropertyOp19
 70
     1
102
RTVSPropertyOp20
 70
     1
102
RTVSPropertyOp21
 70
     1
102
RTVSPropertyOp22
 70
     1
102
RTVSPropertyOp23
 70
     1
102
RTVSPropertyOp24
 70
     1
102
RTVSPropertyOp25
 70
     1
102
RTVSPropertyOp26
 70
     1
102
RTVSPropertyOp27
 70
     1
  0
XRECORD
  5
469
102
{ACAD_REACTORS
330
468
102
}
330
468
100
AcDbXrecord
280
     1
102
RTVSPropertyOp0
 70
     1
102
RTVSPropertyOp1
 70
     1
102
RTVSPropertyOp2
 70
     1
102
RTVSPropertyOp3
 70
     1
102
RTVSPropertyOp4
 70
     1
102
RTVSPropertyOp5
 70
     1
102
RTVSPropertyOp6
 70
     1
102
RTVSPropertyOp7
 70
     1
102
RTVSPropertyOp8
 70
     1
102
RTVSPropertyOp9
 70
     1
102
RTVSPropertyOp10
 70
     1
102
RTVSPropertyOp11
 70
     1
102
RTVSPropertyOp12
 70
     1
102
RTVSPropertyOp13
 70
     1
102
RTVSPropertyOp14
 70
     1
102
RTVSPropertyOp15
 70
     1
102
RTVSPropertyOp16
 70
     1
102
RTVSPropertyOp17
 70
     1
102
RTVSPropertyOp18
 70
     1
102
RTVSPropertyOp19
 70
     1
102
RTVSPropertyOp20
 70
     1
102
RTVSPropertyOp21
 70
     1
102
RTVSPropertyOp22
 70
     1
102
RTVSPropertyOp23
 70
     1
102
RTVSPropertyOp24
 70
     1
102
RTVSPropertyOp25
 70
     1
102
RTVSPropertyOp26
 70
     1
102
RTVSPropertyOp27
 70
     1
  0
XRECORD
  5
46B
102
{ACAD_REACTORS
330
46A
102
}
330
46A
100
AcDbXrecord
280
     1
102
RTVSPropertyOp0
 70
     1
102
RTVSPropertyOp1
 70
     1
102
RTVSPropertyOp2
 70
     1
102
RTVSPropertyOp3
 70
     1
102
RTVSPropertyOp4
 70
     1
102
RTVSPropertyOp5
 70
     1
102
RTVSPropertyOp6
 70
     1
102
RTVSPropertyOp7
 70
     1
102
RTVSPropertyOp8
 70
     1
102
RTVSPropertyOp9
 70
     1
102
RTVSPropertyOp10
 70
     1
102
RTVSPropertyOp11
 70
     1
102
RTVSPropertyOp12
 70
     1
102
RTVSPropertyOp13
 70
     1
102
RTVSPropertyOp14
 70
     1
102
RTVSPropertyOp15
 70
     1
102
RTVSPropertyOp16
 70
     1
102
RTVSPropertyOp17
 70
     1
102
RTVSPropertyOp18
 70
     1
102
RTVSPropertyOp19
 70
     1
102
RTVSPropertyOp20
 70
     1
102
RTVSPropertyOp21
 70
     1
102
RTVSPropertyOp22
 70
     1
102
RTVSPropertyOp23
 70
     1
102
RTVSPropertyOp24
 70
     1
102
RTVSPropertyOp25
 70
     1
102
RTVSPropertyOp26
 70
     1
102
RTVSPropertyOp27
 70
     1
  0
XRECORD
  5
46D
102
{ACAD_REACTORS
330
46C
102
}
330
46C
100
AcDbXrecord
280
     1
102
RTVSPropertyOp0
 70
     1
102
RTVSPropertyOp1
 70
     1
102
RTVSPropertyOp2
 70
     1
102
RTVSPropertyOp3
 70
     1
102
RTVSPropertyOp4
 70
     1
102
RTVSPropertyOp5
 70
     1
102
RTVSPropertyOp6
 70
     1
102
RTVSPropertyOp7
 70
     1
102
RTVSPropertyOp8
 70
     1
102
RTVSPropertyOp9
 70
     1
102
RTVSPropertyOp10
 70
     1
102
RTVSPropertyOp11
 70
     1
102
RTVSPropertyOp12
 70
     1
102
RTVSPropertyOp13
 70
     1
102
RTVSPropertyOp14
 70
     1
102
RTVSPropertyOp15
 70
     1
102
RTVSPropertyOp16
 70
     1
102
RTVSPropertyOp17
 70
     1
102
RTVSPropertyOp18
 70
     1
102
RTVSPropertyOp19
 70
     1
102
RTVSPropertyOp20
 70
     1
102
RTVSPropertyOp21
 70
     1
102
RTVSPropertyOp22
 70
     1
102
RTVSPropertyOp23
 70
     1
102
RTVSPropertyOp24
 70
     1
102
RTVSPropertyOp25
 70
     1
102
RTVSPropertyOp26
 70
     1
102
RTVSPropertyOp27
 70
     1
  0
XRECORD
  5
46F
102
{ACAD_REACTORS
330
46E
102
}
330
46E
100
AcDbXrecord
280
     1
102
RTVSPropertyOp0
 70
     1
102
RTVSPropertyOp1
 70
     1
102
RTVSPropertyOp2
 70
     1
102
RTVSPropertyOp3
 70
     1
102
RTVSPropertyOp4
 70
     1
102
RTVSPropertyOp5
 70
     1
102
RTVSPropertyOp6
 70
     1
102
RTVSPropertyOp7
 70
     1
102
RTVSPropertyOp8
 70
     1
102
RTVSPropertyOp9
 70
     1
102
RTVSPropertyOp10
 70
     1
102
RTVSPropertyOp11
 70
     1
102
RTVSPropertyOp12
 70
     1
102
RTVSPropertyOp13
 70
     1
102
RTVSPropertyOp14
 70
     1
102
RTVSPropertyOp15
 70
     1
102
RTVSPropertyOp16
 70
     1
102
RTVSPropertyOp17
 70
     1
102
RTVSPropertyOp18
 70
     1
102
RTVSPropertyOp19
 70
     1
102
RTVSPropertyOp20
 70
     1
102
RTVSPropertyOp21
 70
     1
102
RTVSPropertyOp22
 70
     1
102
RTVSPropertyOp23
 70
     1
102
RTVSPropertyOp24
 70
     1
102
RTVSPropertyOp25
 70
     1
102
RTVSPropertyOp26
 70
     1
102
RTVSPropertyOp27
 70
     1
  0
XRECORD
  5
483
102
{ACAD_REACTORS
330
482
102
}
330
482
100
AcDbXrecord
280
     1
102
RTVSPropertyOp0
 70
     0
102
RTVSPropertyOp1
 70
     0
102
RTVSPropertyOp2
 70
     0
102
RTVSPropertyOp3
 70
     0
102
RTVSPropertyOp4
 70
     0
102
RTVSPropertyOp5
 70
     0
102
RTVSPropertyOp6
 70
     0
102
RTVSPropertyOp7
 70
     0
102
RTVSPropertyOp8
 70
     0
102
RTVSPropertyOp9
 70
     0
102
RTVSPropertyOp10
 70
     0
102
RTVSPropertyOp11
 70
     0
102
RTVSPropertyOp12
 70
     0
102
RTVSPropertyOp13
 70
     0
102
RTVSPropertyOp14
 70
     2
102
RTVSPropertyOp15
 70
     0
102
RTVSPropertyOp16
 70
     0
102
RTVSPropertyOp17
 70
     0
102
RTVSPropertyOp18
 70
     0
102
RTVSPropertyOp19
 70
     0
102
RTVSPropertyOp20
 70
     0
102
RTVSPropertyOp21
 70
     0
102
RTVSPropertyOp22
 70
     0
102
RTVSPropertyOp23
 70
     0
102
RTVSPropertyOp24
 70
     0
102
RTVSPropertyOp25
 70
     0
102
RTVSPropertyOp26
 70
     0
102
RTVSPropertyOp27
 70
     0
  0
XRECORD
  5
47D
102
{ACAD_REACTORS
330
47C
102
}
330
47C
100
AcDbXrecord
280
     1
102
RTVSPropertyOp0
 70
     1
102
RTVSPropertyOp1
 70
     1
102
RTVSPropertyOp2
 70
     1
102
RTVSPropertyOp3
 70
     1
102
RTVSPropertyOp4
 70
     1
102
RTVSPropertyOp5
 70
     1
102
RTVSPropertyOp6
 70
     1
102
RTVSPropertyOp7
 70
     1
102
RTVSPropertyOp8
 70
     1
102
RTVSPropertyOp9
 70
     1
102
RTVSPropertyOp10
 70
     1
102
RTVSPropertyOp11
 70
     1
102
RTVSPropertyOp12
 70
     1
102
RTVSPropertyOp13
 70
     1
102
RTVSPropertyOp14
 70
     1
102
RTVSPropertyOp15
 70
     1
102
RTVSPropertyOp16
 70
     1
102
RTVSPropertyOp17
 70
     1
102
RTVSPropertyOp18
 70
     1
102
RTVSPropertyOp19
 70
     1
102
RTVSPropertyOp20
 70
     1
102
RTVSPropertyOp21
 70
     1
102
RTVSPropertyOp22
 70
     1
102
RTVSPropertyOp23
 70
     1
102
RTVSPropertyOp24
 70
     1
102
RTVSPropertyOp25
 70
     1
102
RTVSPropertyOp26
 70
     1
102
RTVSPropertyOp27
 70
     1
  0
XRECORD
  5
485
102
{ACAD_REACTORS
330
484
102
}
330
484
100
AcDbXrecord
280
     1
102
RTVSPropertyOp0
 70
     0
102
RTVSPropertyOp1
 70
     0
102
RTVSPropertyOp2
 70
     0
102
RTVSPropertyOp3
 70
     0
102
RTVSPropertyOp4
 70
     0
102
RTVSPropertyOp5
 70
     0
102
RTVSPropertyOp6
 70
     0
102
RTVSPropertyOp7
 70
     0
102
RTVSPropertyOp8
 70
     0
102
RTVSPropertyOp9
 70
     0
102
RTVSPropertyOp10
 70
     0
102
RTVSPropertyOp11
 70
     0
102
RTVSPropertyOp12
 70
     0
102
RTVSPropertyOp13
 70
     0
102
RTVSPropertyOp14
 70
     2
102
RTVSPropertyOp15
 70
     0
102
RTVSPropertyOp16
 70
     0
102
RTVSPropertyOp17
 70
     0
102
RTVSPropertyOp18
 70
     0
102
RTVSPropertyOp19
 70
     0
102
RTVSPropertyOp20
 70
     0
102
RTVSPropertyOp21
 70
     0
102
RTVSPropertyOp22
 70
     0
102
RTVSPropertyOp23
 70
     0
102
RTVSPropertyOp24
 70
     0
102
RTVSPropertyOp25
 70
     0
102
RTVSPropertyOp26
 70
     0
102
RTVSPropertyOp27
 70
     0
  0
XRECORD
  5
465
102
{ACAD_REACTORS
330
464
102
}
330
464
100
AcDbXrecord
280
     1
102
RTVSPropertyOp0
 70
     1
102
RTVSPropertyOp1
 70
     1
102
RTVSPropertyOp2
 70
     1
102
RTVSPropertyOp3
 70
     1
102
RTVSPropertyOp4
 70
     1
102
RTVSPropertyOp5
 70
     1
102
RTVSPropertyOp6
 70
     1
102
RTVSPropertyOp7
 70
     1
102
RTVSPropertyOp8
 70
     1
102
RTVSPropertyOp9
 70
     1
102
RTVSPropertyOp10
 70
     1
102
RTVSPropertyOp11
 70
     1
102
RTVSPropertyOp12
 70
     1
102
RTVSPropertyOp13
 70
     1
102
RTVSPropertyOp14
 70
     1
102
RTVSPropertyOp15
 70
     1
102
RTVSPropertyOp16
 70
     1
102
RTVSPropertyOp17
 70
     1
102
RTVSPropertyOp18
 70
     1
102
RTVSPropertyOp19
 70
     1
102
RTVSPropertyOp20
 70
     1
102
RTVSPropertyOp21
 70
     1
102
RTVSPropertyOp22
 70
     1
102
RTVSPropertyOp23
 70
     1
102
RTVSPropertyOp24
 70
     1
102
RTVSPropertyOp25
 70
     1
102
RTVSPropertyOp26
 70
     1
102
RTVSPropertyOp27
 70
     1
  0
XRECORD
  5
47B
102
{ACAD_REACTORS
330
47A
102
}
330
47A
100
AcDbXrecord
280
     1
102
RTVSPropertyOp0
 70
     1
102
RTVSPropertyOp1
 70
     1
102
RTVSPropertyOp2
 70
     1
102
RTVSPropertyOp3
 70
     1
102
RTVSPropertyOp4
 70
     1
102
RTVSPropertyOp5
 70
     1
102
RTVSPropertyOp6
 70
     1
102
RTVSPropertyOp7
 70
     1
102
RTVSPropertyOp8
 70
     1
102
RTVSPropertyOp9
 70
     1
102
RTVSPropertyOp10
 70
     1
102
RTVSPropertyOp11
 70
     1
102
RTVSPropertyOp12
 70
     1
102
RTVSPropertyOp13
 70
     1
102
RTVSPropertyOp14
 70
     1
102
RTVSPropertyOp15
 70
     1
102
RTVSPropertyOp16
 70
     1
102
RTVSPropertyOp17
 70
     1
102
RTVSPropertyOp18
 70
     1
102
RTVSPropertyOp19
 70
     1
102
RTVSPropertyOp20
 70
     1
102
RTVSPropertyOp21
 70
     1
102
RTVSPropertyOp22
 70
     1
102
RTVSPropertyOp23
 70
     1
102
RTVSPropertyOp24
 70
     1
102
RTVSPropertyOp25
 70
     1
102
RTVSPropertyOp26
 70
     1
102
RTVSPropertyOp27
 70
     1
  0
ENDSEC
  0
EOF
